Useful link:

MediaInfo:
General
Complete name : ROBOCOP_2014_WEB_DL_1080p_BLUEBIRD.mkv
Format : Matroska
Format version : Version 2
File size : 3.84 GiB
Duration : 1h 57mn
Overall bit rate : 4 682 Kbps
Movie name : ROBOCOP_2014_WEB_DL_1080p_BLUEBIRD

Video
ID : 1
Format : AVC
Format/Info : Advanced Video Codec
Format profile : High@L4.0
Format settings, CABAC : Yes
Format settings, ReFrames : 5 frames
Codec ID : V_MPEG4/ISO/AVC
Duration : 1h 57mn
Bit rate : 3 821 Kbps
Width : 1 916 pixels
Height : 796 pixels
Display aspect ratio : 2.40:1
Frame rate mode : Constant
Frame rate : 23.976 fps
Color space : YUV
Chroma subsampling : 4:2:0
Bit depth : 8 bits
Scan type : Progressive
Bits/(Pixel*Frame) : 0.104
Stream size : 3.14 GiB (82%)
Title : ROBOCOP_2014_WEB_DL_1080p_BLUEBIRD
Language : English
Default : Yes
Forced : No
Color primaries : BT.709
Transfer characteristics : BT.709
Matrix coefficients : BT.709

Audio #1
ID : 2
Format : AC-3
Format/Info : Audio Coding 3
Mode extension : CM (complete main)
Format settings, Endianness : Big
Codec ID : A_AC3
Duration : 1h 57mn
Bit rate mode : Constant
Bit rate : 384 Kbps
Channel(s) : 6 channels
Channel positions : Front: L C R, Side: L R, LFE
Sampling rate : 48.0 KHz
Bit depth : 16 bits
Compression mode : Lossy
Stream size : 323 MiB (8%)
Title : DD 5.1 @ 384 kbps [DUB] Language : Russian
Default : Yes
Forced : No

Audio #2
ID : 3
Format : AC-3
Format/Info : Audio Coding 3
Format profile : Dolby Digital
Mode extension : CM (complete main)
Format settings, Endianness : Big
Codec ID : A_AC3
Duration : 1h 57mn
Bit rate mode : Constant
Bit rate : 192 Kbps
Channel(s) : 2 channels
Channel positions : Front: L R
Sampling rate : 48.0 KHz
Bit depth : 16 bits
Compression mode : Lossy
Stream size : 161 MiB (4%)
Title : DD 2.0 @ 192 kbps [ORIGINAL] Language : English
Default : No
Forced : No

Audio #3
ID : 4
Format : AC-3
Format/Info : Audio Coding 3
Format profile : Dolby Digital
Mode extension : CM (complete main)
Format settings, Endianness : Big
Codec ID : A_AC3
Duration : 1h 57mn
Bit rate mode : Constant
Bit rate : 192 Kbps
Channel(s) : 2 channels
Channel positions : Front: L R
Sampling rate : 48.0 KHz
Bit depth : 16 bits
Compression mode : Lossy
Stream size : 161 MiB (4%)
Title : DD 2.0 @ 192 kbps [DUB] Language : Ukrainian
Default : No
Forced : No

Text
Format : UTF-8
Codec ID : S_TEXT/UTF8
Codec ID/Info : UTF-8 Plain Text
Title : FULL-LENGTH
Language : Russian,Ukrainian,English
Default : No
Forced : No

Menu
00:00:00.000 : en:00:00:00.000
00:14:19.000 : en:00:14:19.000
00:21:54.000 : en:00:21:54.000
00:32:50.000 : en:00:32:50.000
00:43:05.000 : en:00:43:05.000
00:57:22.000 : en:00:57:22.000
01:12:44.000 : en:01:12:44.000
01:26:37.000 : en:01:26:37.000
01:41:32.000 : en:01:41:32.000
01:50:14.000 : en:01:50:14.000
01:57:30.967 : en:01:57:30.967

Screenshot:

Sign up via clicking banner and a file link to creat a premium account.Then Get the access to protected links.

ExtMatrix Download Links

ROBOCOP_2014_WEB_DL_1080p_BLUEBIRD.mkv