External Links:

Big thanks to AHG on EP11 12 13:)

General
Complete name : Saving.Hope.S02E03.1080p.WEB-DL.DD5.1.H.264-Abjex.mkv
Format : Matroska
Format version : Version 4 / Version 2
File size : 1.70 GiB
Duration : 43mn 51s
Overall bit rate : 5 558 Kbps
Movie name : Saving.Hope.S02E03.1080p.WEB-DL.DD5.1.H.264-Abjex
Encoded date : UTC 2013-07-10 08:04:55
Writing application : mkvmerge v6.3.0 (‘You can’t stop me!’) built on Jun 28 2013 20:09:41
Writing library : libebml v1.3.0 + libmatroska v1.4.0

Video
ID : 1
Format : AVC
Format/Info : Advanced Video Codec
Format profile : High@L4.0
Format settings, CABAC : Yes
Format settings, ReFrames : 4 frames
Codec ID : V_MPEG4/ISO/AVC
Duration : 43mn 51s
Bit rate : 5 063 Kbps
Width : 1 920 pixels
Height : 1 080 pixels
Display aspect ratio : 16:9
Frame rate mode : Constant
Frame rate : 23.976 fps
Color space : YUV
Chroma subsampling : 4:2:0
Bit depth : 8 bits
Scan type : Progressive
Bits/(Pixel*Frame) : 0.102
Stream size : 1.55 GiB (91%)
Language : English
Default : Yes
Forced : No
Color primaries : BT.709
Transfer characteristics : BT.709
Matrix coefficients : BT.709

Audio
ID : 2
Format : AC-3
Format/Info : Audio Coding 3
Mode extension : CM (complete main)
Format settings, Endianness : Big
Codec ID : A_AC3
Duration : 43mn 51s
Bit rate mode : Constant
Bit rate : 384 Kbps
Channel(s) : 6 channels
Channel positions : Front: L C R, Side: L R, LFE
Sampling rate : 48.0 KHz
Bit depth : 16 bits
Compression mode : Lossy
Stream size : 120 MiB (7%)
Language : English
Default : Yes
Forced : No

Text
ID : 3
Format : UTF-8
Codec ID : S_TEXT/UTF8
Codec ID/Info : UTF-8 Plain Text
Language : English
Default : Yes
Forced : No

Screenshot:

Sign up via clicking banner and a file link to creat a premium account.

ExtMatrix Download Links

Saving.Hope.S02E01.1080p.WEB-DL.DD5.1.H.264-Abjex.mkv
Saving.Hope.S02E02.1080p.WEB-DL.DD5.1.H.264-Abjex.mkv
Saving.Hope.S02E03.1080p.WEB-DL.DD5.1.H.264-Abjex.mkv
Saving.Hope.S02E04.Defense.1080p.WEB-DL.DD5.1.H.264-Abjex.mkv
Saving.Hope.S02E05.The.Face.of.the.Giant.Panda.1080p.WEB-DL.DD5.1.H.264-Abjex.mkv
Saving.Hope.S02E06.All.Things.Must.Pass.1080p.WEB-DL.DD5.1.H.264-Abjex.mkv
Saving.Hope.S02E07.Bed.One.1080p.WEB-DL.DD5.1.H.264-Abjex.mkv
Saving.Hope.S02E08.Defriender.1080p.WEB-DL.DD5.1.H.264-Abjex.mkv
Saving.Hope.S02E09.Vamonos.1080p.WEB-DL.DD5.1.H.264-Abjex.mkv
Saving.Hope.S02E10.Wishbones.1080p.WEB-DL.DD5.1.H.264-Abjex.mkv

Click Here for downloading links Saving Hope S02E11 S02E12 S02E13  p1080p WEB-DL DD5.1 H.264 AHG