External Links:

General
Complete name : Sean.Saves.the.World.S01E01.Pilot.1080p.WEB-DL.DD5.1.H.264-iSuX.mkv
Format : Matroska
Format version : Version 2
File size : 822 MiB
Duration : 21mn 29s
Overall bit rate : 5 351 Kbps

Video
ID : 1
Format : AVC
Format/Info : Advanced Video Codec
Format profile : High@L4.0
Format settings, CABAC : Yes
Format settings, ReFrames : 4 frames
Codec ID : V_MPEG4/ISO/AVC
Duration : 21mn 29s
Bit rate : 4 860 Kbps
Width : 1 920 pixels
Height : 1 080 pixels
Display aspect ratio : 16:9
Frame rate mode : Constant
Frame rate : 23.976 fps
Color space : YUV
Chroma subsampling : 4:2:0
Bit depth : 8 bits
Scan type : Progressive
Bits/(Pixel*Frame) : 0.098
Stream size : 747 MiB (91%)
Language : English
Default : Yes
Forced : No
Color primaries : BT.709
Transfer characteristics : BT.709
Matrix coefficients : BT.709

Audio
ID : 2
Format : AC-3
Format/Info : Audio Coding 3
Mode extension : CM (complete main)
Format settings, Endianness : Big
Codec ID : A_AC3
Duration : 21mn 29s
Bit rate mode : Constant
Bit rate : 384 Kbps
Channel(s) : 6 channels
Channel positions : Front: L C R, Side: L R, LFE
Sampling rate : 48.0 KHz
Bit depth : 16 bits
Compression mode : Lossy
Stream size : 59.0 MiB (7%)
Language : English
Default : Yes
Forced : No

Text
ID : 3
Format : UTF-8
Codec ID : S_TEXT/UTF8
Codec ID/Info : UTF-8 Plain Text
Title : CC
Language : English
Default : No
Forced : No

Sean.Saves.the.World.S01E01.Pilot.1080p.WEB DL.DD5.1.H.264 iSuX.mkv 822.38 MB
Sean.Saves.the.World.S01E02.Busted.1080p.WEB DL.DD5.1.H.264 BS.mkv 838.13 MB
Sean.Saves.the.World.S01E03.Date.Expectations.1080p.WEB DL.DD5.1.H.264 BS.mkv 844.87 MB
Sean.Saves.the.World.S01E04.Shut.Your.Parent.Trap.1080p.WEB DL.DD5.1.H.264 BS.mkv 847.19 MB
Sean.Saves.the.World.S01E05.Nobody.Puts.Sean.in.a.Corner.1080p.WEB DL.DD5.1.H.264 BS.mkv 855.21 MB
Sean.Saves.the.World.S01E06.Sean.Comes.Clean.1080p.WEB DL.DD5.1.H.264 BS.mkv 846.79 MB
Sean.Saves.the.World.S01E07.The.Good.The.Bad.and.the.Sean.1080p.WEB DL.DD5.1.H.264 BS.mkv 877.15 MB
Sean.Saves.the.World.S01E08.Of.Moles.and.Men.1080p.WEB DL.DD5.1.H.264 BS.mkv 853.38 MB
Sean.Saves.the.World.S01E09.Best.Friends.for.Never.1080p.WEB DL.DD5.1.H.264 BS.mkv 843.48 MB
Sean.Saves.the.World.S01E10.Sean.the.Fabulous.1080p.WEB DL.DD5.1.H.264 BS.mkv 819.04 MB
Sean.Saves.the.World.S01E11.Trapped.in.the.Closet.Part.2.1080p.WEB DL.DD5.1.H.264 BS.mkv 827.49 MB
Sean.Saves.the.World.S01E12.The.Wrath.of.Sean.1080p.WEB DL.DD5.1.H.264 BS.mkv 840.01 MB
Sean.Saves.the.World.S01E13.I.Know.Why.The.Cage.Bird.Zings.1080p.WEB DL.DD5.1.H.264 BS.mkv 832.12 MB
Sean.Saves.the.World.S01E14.The.Joy.of.Ex.1080p.WEB DL.DD5.1.H.264 BS.mkv 834.33 MB
Sean.Saves.the.World.S01E15.The.Dark.Sean.Rises.1080p.WEB DL.DD5.1.H.264 BS.mkv 815.13 MB

Sean.Saves.the.World.S01.NBC.Comedy.First.Looks.1080p.WEB-DL.AAC2.0.H.264-HKD.mkv 73.83 MB

Screenshot:

Sign up via clicking banner and a file link to creat a premium account.Then Get the access to protected links.

ExtMatrix Download Links

Sean.Saves.the.World.S01.NBC.Comedy.First.Looks.1080p.WEB-DL.AAC2.0.H.264-HKD.mkv
Sean.Saves.the.World.S01E01.Pilot.1080p.WEB-DL.DD5.1.H.264-iSuX.mkv
Sean.Saves.the.World.S01E02.Busted.1080p.WEB-DL.DD5.1.H.264-BS.mkv
Sean.Saves.the.World.S01E04.Shut.Your.Parent.Trap.1080p.WEB-DL.DD5.1.H.264-BS.mkv
Sean.Saves.the.World.S01E05.Nobody.Puts.Sean.in.a.Corner.1080p.WEB-DL.DD5.1.H.264-BS.mkv
Sean.Saves.the.World.S01E06.Sean.Comes.Clean.1080p.WEB-DL.DD5.1.H.264-BS.mkv
Sean.Saves.the.World.S01E07.The.Good.The.Bad.and.the.Sean.1080p.WEB-DL.DD5.1.H.264-BS.mkv
Sean.Saves.the.World.S01E08.Of.Moles.and.Men.1080p.WEB-DL.DD5.1.H.264-BS.mkv
Sean.Saves.the.World.S01E09.Best.Friends.for.Never.1080p.WEB-DL.DD5.1.H.264-BS.mkv
Sean.Saves.the.World.S01E11.Trapped.in.the.Closet.Part.2.1080p.WEB-DL.DD5.1.H.264-BS.mkv
Sean.Saves.the.World.S01E13.I.Know.Why.The.Cage.Bird.Zings.1080p.WEB-DL.DD5.1.H.264-BS.mkv
Sean.Saves.the.World.S01E14.The.Joy.of.Ex.1080p.WEB-DL.DD5.1.H.264-BS.mkv
Sean.Saves.the.World.S01E15.The.Dark.Sean.Rises.1080p.WEB-DL.DD5.1.H.264-BS.mkv
Sean.Saves.the.World.S01E03.Date.Expectations.720p.WEB-DL.DD5.1.H.264-BS.mkv
Sean.Saves.the.World.S01E10.Sean.the.Fabulous.720p.WEB-DL.DD5.1.H.264-BS.mkv
Sean.Saves.the.World.S01E12.The.Wrath.of.Sean.720p.WEB-DL.DD5.1.H.264-BS.mkv