External Links:

General
Complete name : pfa-sr.s01e05.720p.mkv
Format : Matroska
Format version : Version 4 / Version 2
File size : 2.18 GiB
Duration : 52mn 57s
Overall bit rate : 5 885 Kbps

Video
ID : 1
Format : AVC
Format/Info : Advanced Video Codec
Format profile : High@L4.1
Format settings, CABAC : Yes
Format settings, ReFrames : 5 frames
Codec ID : V_MPEG4/ISO/AVC
Duration : 52mn 57s
Bit rate : 4 375 Kbps
Width : 1 280 pixels
Height : 720 pixels
Display aspect ratio : 16:9
Frame rate mode : Constant
Frame rate : 25.000 fps
Color space : YUV
Chroma subsampling : 4:2:0
Bit depth : 8 bits
Scan type : Progressive
Bits/(Pixel*Frame) : 0.190
Stream size : 1.58 GiB (72%)
Writing library : x264 core 133 r2334 a3ac64b
Encoding settings : cabac=1 / ref=5 / deblock=1:0:0 / analyse=0x3:0x133 / me=umh / subme=8 / psy=1 /

Audio
ID : 2
Format : DTS
Format/Info : Digital Theater Systems
Mode : 16
Format settings, Endianness : Big
Codec ID : A_DTS
Duration : 52mn 57s
Bit rate mode : Constant
Bit rate : 1 509 Kbps
Channel(s) : 6 channels
Channel positions : Front: L C R, Side: L R, LFE
Sampling rate : 48.0 KHz
Bit depth : 16 bits
Compression mode : Lossy
Stream size : 572 MiB (26%)
Default : Yes
Forced : No

File Name Size
pfa sr.s01e01.720p.mkv 2.18 GB
pfa sr.s01e02.720p.mkv 2.18 GB
pfa sr.s01e03.720p.mkv 2.18 GB
pfa sr.s01e04.720p.mkv 2.18 GB
pfa sr.s01e05.720p.mkv 2.18 GB
pfa sr.s01e06.720p.mkv 2.17 GB
pfa sr.s01e07.720p.mkv 2.18 GB
pfa sr.s01e08.720p.mkv 2.18 GB
pfa sr.s01e09.720p.mkv 2.18 GB
pfa sr.s01e10.720p.mkv 2.18 GB

Screenshot:

Sign up via clicking banner and a file link to creat a premium account.Then Get the access to protected links.

ExtMatrix Download Links

Click Here for downloading links Serangoon Road S01 720p BluRay x264 PFa