Useful link:

IMDB

TVRAGE

TVDB

MediaInfo:

Simply put, this is a Canadian production and in Canada this here was broadcast as the opening of the show and is included as such in the iTunes season pass in Canada. It conflicts with TheTVDB and TVRage and everywhere else. Domestic broadcast is the trump in hierarchy and it is named accordingly. “Postmark: The Live Room” is not an alternate name for this but is the title for the 4th-last episode of the season (7 by TVDB and 9 by me). The file and release names are what they are and while it is easy to move subsequent episodes into place to match the erroneous scene this has no place. It is not unaired. It is actually titled “Pilot”. It was shown as the premiere of the series in its domestic broadcast. It is the first episode of the domestic iTunes season pack. So it doesn’t belong as E00.   ———S01E01-02

 
 

General
Complete name : Signed.Sealed.Delivered.S01E03.Time.To.Start.Livin.720p.WEB-DL.DD5.1.h264-jAh.mkv
Format : Matroska
Format version : Version 2
File size : 1.32 GiB
Duration : 42mn 49s
Overall bit rate : 4 430 Kbps

 

General
Complete name : Signed.Sealed.Delivered.S01E01.1080p.WEB-DL.DD5.1.H.264.HKD.mkv
Format : Matroska
Format version : Version 4 / Version 2
File size : 1.63 GiB
Duration : 42mn 49s
Overall bit rate : 5 441 Kbps
Movie name : ripped by CrazyHDSource.com

Video
ID : 1
Format : AVC
Format/Info : Advanced Video Codec
Format profile : High@L4.0
Format settings, CABAC : Yes
Format settings, ReFrames : 4 frames
Codec ID : V_MPEG4/ISO/AVC
Duration : 42mn 49s
Bit rate : 4 949 Kbps
Width : 1 896 pixels
Height : 1 064 pixels
Display aspect ratio : 16:9
Frame rate mode : Constant
Frame rate : 23.976 fps
Color space : YUV
Chroma subsampling : 4:2:0
Bit depth : 8 bits
Scan type : Progressive
Bits/(Pixel*Frame) : 0.102
Stream size : 1.48 GiB (91%)
Title : ripped by CrazyHDSource.com
Language : English
Default : Yes
Forced : No
Color primaries : BT.709
Transfer characteristics : BT.709
Matrix coefficients : BT.709

Audio
ID : 2
Format : AC-3
Format/Info : Audio Coding 3
Mode extension : CM (complete main)
Format settings, Endianness : Big
Codec ID : A_AC3
Duration : 42mn 49s
Bit rate mode : Constant
Bit rate : 384 Kbps
Channel(s) : 6 channels
Channel positions : Front: L C R, Side: L R, LFE
Sampling rate : 48.0 KHz
Bit depth : 16 bits
Compression mode : Lossy
Stream size : 118 MiB (7%)
Language : English
Default : Yes
Forced : No

Text
ID : 3
Format : UTF-8
Codec ID : S_TEXT/UTF8
Codec ID/Info : UTF-8 Plain Text
Language : English
Default : No
Forced : No

Screenshot:

Sign up via clicking banner and a file link to creat a premium account.Then Get the access to protected links.

ExtMatrix Download Links

Signed.Sealed.Delivered.S01E01-02.Pilot.720p.WEB-DL.DD5.1.h264-jAh.mkv
Signed.Sealed.Delivered.S01E03.Time.To.Start.Livin.720p.WEB-DL.DD5.1.h264-jAh.mkv
Signed.Sealed.Delivered.S01E04.To.Whom.It.May.Concern.720p.WEB-DL.DD5.1.h264-jAh.mkv
Signed.Sealed.Delivered.S01E05.Soulmates.720p.WEB-DL.DD5.1.h264-jAh.mkv
Signed.Sealed.Delivered.S01E06.The.Masterpiece.720p.WEB-DL.DD5.1.h264-jAh.mkv
Signed.Sealed.Delivered.S01E07.The.Edge.Of.Forever.720p.WEB-DL.DD5.1.h264-jAh.mkv

Click Here for downloading links Signed Sealed Delivered S01E01 1080p WEB-DL DD5 1 H 264 HKD