Useful link:

IMDB

TVRAGE

TVDB

MediaInfo:
General
Complete name : Sleepy.Hollow.S02E01.1080p.WEB-DL.DD5.1.H.264.HKD.mkv
Format : Matroska
Format version : Version 4 / Version 2
File size : 1.67 GiB
Duration : 45mn 46s
Overall bit rate : 5 220 Kbps
Movie name : ripped by CrazyHDSource.com

Video
ID : 1
Format : AVC
Format/Info : Advanced Video Codec
Format profile : High@L4.0
Format settings, CABAC : Yes
Format settings, ReFrames : 4 frames
Codec ID : V_MPEG4/ISO/AVC
Duration : 45mn 46s
Bit rate : 4 732 Kbps
Width : 1 920 pixels
Height : 1 080 pixels
Display aspect ratio : 16:9
Frame rate mode : Constant
Frame rate : 23.976 fps
Color space : YUV
Chroma subsampling : 4:2:0
Bit depth : 8 bits
Scan type : Progressive
Bits/(Pixel*Frame) : 0.095
Stream size : 1.51 GiB (91%)
Title : ripped by CrazyHDSource.com
Language : English
Default : Yes
Forced : No
Color primaries : BT.709
Transfer characteristics : BT.709
Matrix coefficients : BT.709

Audio
ID : 2
Format : AC-3
Format/Info : Audio Coding 3
Mode extension : CM (complete main)
Format settings, Endianness : Big
Codec ID : A_AC3
Duration : 45mn 46s
Bit rate mode : Constant
Bit rate : 384 Kbps
Channel(s) : 6 channels
Channel positions : Front: L C R, Side: L R, LFE
Sampling rate : 48.0 KHz
Bit depth : 16 bits
Compression mode : Lossy
Stream size : 126 MiB (7%)
Language : English
Default : Yes
Forced : No

Text
ID : 3
Format : UTF-8
Codec ID : S_TEXT/UTF8
Codec ID/Info : UTF-8 Plain Text
Language : English
Default : No
Forced : No

Screenshot:

Sign up via clicking banner and a file link to creat a premium account.Then Get the access to protected links.

ExtMatrix Download Links

Sleepy Hollow S02 Season 2 Sneak Peek (1080p HD).mkv
Sleepy.Hollow.S02E01.This.Is.War.720p.WEB-DL.DD5.1.H.264-BS.mkv
Sleepy.Hollow.S02E02.The.Kindred.1080p.WEB-DL.DD5.1.H.264-BS.mkv
Sleepy.Hollow.S02E02.The.Kindred.720p.WEB-DL.DD5.1.H.264-BS.mkv
Sleepy.Hollow.S02E03.Root.of.All.Evil.1080p.WEB-DL.DD5.1.H.264-BS.mkv
Sleepy.Hollow.S02E03.Root.of.All.Evil.720p.WEB-DL.DD5.1.H.264-BS.mkv
Sleepy.Hollow.S02E04.Go.Where.I.Send.Thee.720p.WEB-DL.DD5.1.H.264-BS.mkv
Sleepy.Hollow.S02E05.The.Weeping.Lady.1080p.WEB-DL.DD5.1.H.264-BS.mkv
Sleepy.Hollow.S02E05.The.Weeping.Lady.720p.WEB-DL.DD5.1.H.264-BS.mkv
Sleepy.Hollow.S02E06.And.the.Abyss.Gazes.Back.720p.WEB-DL.DD5.1.H.264-BS.mkv
Sleepy.Hollow.S02E06.And.the.Abyss.Gazes.Back.1080p.WEB-DL.DD5.1.H.264-BS.mkv
Sleepy.Hollow.S02E07.Deliverance.720p.WEB-DL.DD5.1.H.264-BS.mkv
Sleepy.Hollow.S02E07.Deliverance.1080p.WEB-DL.DD5.1.H.264-BS.mkv
Sleepy.Hollow.S02E08.Heartless.720p.WEB-DL.DD5.1.H.264-BS.mkv
Sleepy.Hollow.S02E09.Mama.1080p.WEB-DL.DD5.1.H.264-BS.mkv
Sleepy.Hollow.S02E09.Mama.720p.WEB-DL.DD5.1.H.264-BS.mkv
Sleepy.Hollow.S02E10.Magnum.Opus.1080p.WEB-DL.DD5.1.H.264-BS.mkv
Sleepy.Hollow.S02E10.Magnum.Opus.720p.WEB-DL.DD5.1.H.264-BS.mkv
Sleepy.Hollow.S02E11.The.Akeda.720p.WEB-DL.DD5.1.H.264-BS.mkv
Sleepy.Hollow.S02E11.The.Akeda.1080p.WEB-DL.DD5.1.H.264-BS.mkv
Sleepy.Hollow.S02E12.Paradise.Lost.720p.WEB-DL.DD5.1.H.264-BS.mkv
Sleepy.Hollow.S02E13.Pittura.Infamante.720p.WEB-DL.DD5.1.H.264-BS.mkv
Sleepy.Hollow.S02E14.Kali.Yuga.720p.WEB-DL.DD5.1.H.264-BS.mkv
Sleepy.Hollow.S02E14.Kali.Yuga.1080p.WEB-DL.DD5.1.H.264-BS.mkv

Click Here for downloading links Sleepy Hollow S02E01 1080p WEB-DL DD5 1 H 264 HKD

Click Here for downloading links Sleepy Hollow S02E04 1080p WEB-DL DD5 1 H 264 HKD

Click Here for downloading links Sleepy Hollow S02E08 1080p WEB-DL DD5 1 H 264 HKD

Click Here for downloading links Sleepy Hollow S02E12 1080p WEB-DL DD5 1 H 264 HKD

Click Here for downloading links Sleepy Hollow S02E13 1080p WEB-DL DD5 1 H 264 HKD