Useful link:

IMDB

TVRAGE

TVDB

MediaInfo:
General
Complete name : Sons.of.Anarchy.S07E01.1080p.WEB-DL.DD5.1.H.264.HKD.mkv
Format : Matroska
Format version : Version 4 / Version 2
File size : 2.94 GiB
Duration : 1h 17mn
Overall bit rate : 5 411 Kbps
Movie name : ripped by CrazyHDSource.com

Video
ID : 1
Format : AVC
Format/Info : Advanced Video Codec
Format profile : High@L4.0
Format settings, CABAC : Yes
Format settings, ReFrames : 4 frames
Codec ID : V_MPEG4/ISO/AVC
Duration : 1h 17mn
Bit rate : 4 919 Kbps
Width : 1 920 pixels
Height : 1 080 pixels
Display aspect ratio : 16:9
Frame rate mode : Constant
Frame rate : 23.976 fps
Color space : YUV
Chroma subsampling : 4:2:0
Bit depth : 8 bits
Scan type : Progressive
Bits/(Pixel*Frame) : 0.099
Stream size : 2.67 GiB (91%)
Title : ripped by CrazyHDSource.com
Language : English
Default : Yes
Forced : No
Color primaries : BT.709
Transfer characteristics : BT.709
Matrix coefficients : BT.709

Audio
ID : 2
Format : AC-3
Format/Info : Audio Coding 3
Mode extension : CM (complete main)
Format settings, Endianness : Big
Codec ID : A_AC3
Duration : 1h 17mn
Bit rate mode : Constant
Bit rate : 384 Kbps
Channel(s) : 6 channels
Channel positions : Front: L C R, Side: L R, LFE
Sampling rate : 48.0 KHz
Bit depth : 16 bits
Compression mode : Lossy
Stream size : 213 MiB (7%)
Language : English
Default : Yes
Forced : No

Text
ID : 3
Format : UTF-8
Codec ID : S_TEXT/UTF8
Codec ID/Info : UTF-8 Plain Text
Language : English
Default : No
Forced : No

Screenshot:

Sign up via clicking banner and a file link to creat a premium account.Then Get the access to protected links.

ExtMatrix Download Links

Sons of Anarchy S07 Special Look_ Sons of Anarchy-Fi.mkv
Sons of Anarchy S07 In Character With Charlie Hun.mkv
Sons.of.Anarchy.S07E02.Toil.and.Till.1080p.WEB-DL.DD5.1.H.264-CtrlHD.mkv
Sons.of.Anarchy.S07E03.Playing.With.Monsters.1080p.WEB-DL.DD5.1.H.264-CtrlHD.mkv
Sons.of.Anarchy.S07E04.Poor.Little.Lambs.1080p.WEB-DL.DD5.1.H.264-CtrlHD.mkv
Sons.of.Anarchy.S07E05.Some.Strange.Eruption.1080p.WEB-DL.DD5.1.H.264-CtrlHD.mkv

Click Here for downloading links Sons of Anarchy S07E01 1080p WEB-DL DD5 1 H 264 HKD