Useful link:

MediaInfo:
General
Complete name : Splinter 2008 720p Bluray DTS X264 -aZA.mkv
Format : Matroska
Format version : Version 2
File size : 3.53 GiB
Duration : 1h 22mn
Overall bit rate : 6 158 Kbps

Video
ID : 1
Format : AVC
Format/Info : Advanced Video Codec
Format profile : High@L4.1
Format settings, CABAC : Yes
Format settings, ReFrames : 12 frames
Muxing mode : Header stripping
Codec ID : V_MPEG4/ISO/AVC
Duration : 1h 22mn
Bit rate : 4 649 Kbps
Width : 1 280 pixels
Height : 544 pixels
Display aspect ratio : 2.35:1
Frame rate mode : Constant
Frame rate : 23.976 fps
Color space : YUV
Chroma subsampling : 4:2:0
Bit depth : 8 bits
Scan type : Progressive
Bits/(Pixel*Frame) : 0.278
Stream size : 2.59 GiB (74%)
Title : aZA Video
Writing library : x264 core 98 r1649 c54c47d
Encoding settings : cabac=1 / ref=12 / deblock=1:-1:-1 / analyse=0x3:0x113 / me=umh / subme=8 /

Audio
ID : 2
Format : DTS
Format/Info : Digital Theater Systems
Mode : 16
Format settings, Endianness : Big
Muxing mode : Header stripping
Codec ID : A_DTS
Duration : 1h 22mn
Bit rate mode : Constant
Bit rate : 1 509 Kbps
Channel(s) : 6 channels
Channel positions : Front: L C R, Side: L R, LFE
Sampling rate : 48.0 KHz
Bit depth : 24 bits
Compression mode : Lossy
Stream size : 886 MiB (25%)
Title : aZA DTS AUDIO
Language : English
Default : Yes
Forced : No

Screenshot:

Sign up via clicking banner and a file link to creat a premium account.Then Get the access to protected links.

ExtMatrix Download Links

Splinter.2008.720p.Bluray.DTS.X264.-aZA.mkv.part1.rar
Splinter.2008.720p.Bluray.DTS.X264.-aZA.mkv.part2.rar