External Links:

General
Complete name : Squidbillies.S08E01.Granite.Caverns.1080p.WEB-DL.DD5.1.H264-iT00NZ.mkv
Format : Matroska
Format version : Version 4 / Version 2
File size : 428 MiB
Duration : 11mn 9s
Overall bit rate : 5 359 Kbps

Video
ID : 1
Format : AVC
Format/Info : Advanced Video Codec
Format profile : High@L4.0
Format settings, CABAC : Yes
Format settings, ReFrames : 4 frames
Codec ID : V_MPEG4/ISO/AVC
Duration : 11mn 9s
Bit rate : 4 868 Kbps
Width : 1 920 pixels
Height : 1 080 pixels
Display aspect ratio : 16:9
Frame rate mode : Constant
Frame rate : 23.976 fps
Color space : YUV
Chroma subsampling : 4:2:0
Bit depth : 8 bits
Scan type : Progressive
Bits/(Pixel*Frame) : 0.098
Stream size : 389 MiB (91%)
Language : English
Default : Yes
Forced : No
Color primaries : BT.709
Transfer characteristics : BT.709
Matrix coefficients : BT.709

Audio
ID : 2
Format : AC-3
Format/Info : Audio Coding 3
Mode extension : CM (complete main)
Format settings, Endianness : Big
Codec ID : A_AC3
Duration : 11mn 9s
Bit rate mode : Constant
Bit rate : 384 Kbps
Channel(s) : 6 channels
Channel positions : Front: L C R, Side: L R, LFE
Sampling rate : 48.0 KHz
Bit depth : 16 bits
Compression mode : Lossy
Stream size : 30.6 MiB (7%)
Language : English
Default : Yes
Forced : No

Squidbillies.S08E01.Granite.Caverns.1080p.WEB DL.DD5.1.H264 iT00NZ.mkv427.67 MB
Screenshot:

Sign up via clicking banner and a file link to creat a premium account.Then Get the access to protected links.

ExtMatrix Download Links

Squidbillies.S08E01.Granite.Caverns.1080p.WEB-DL.DD5.1.H264-iT00NZ.mkv
Squidbillies.S08E02.Ga-Ga-Ghost.1080p.WEB-DL.DD5.1.H264-iT00NZ.mkv
Squidbillies.S08E03.The.Inkubator.Lives.1080p.WEB-DL.DD5.1.H264-iT00NZ.mkv
Squidbillies.S08E04.Drone.to.the.Bone.1080p.WEB-DL.DD5.1.H264-iT00NZ.mkv
Squidbillies.S08E05.A.Jailhouse.Divided.1080p.WEB-DL.DD5.1.H264-iT00NZ.mkv
Squidbillies.S08E06.Stop.Jammertime.1080p.WEB-DL.DD5.1.H264-iT00NZ.mkv
Squidbillies.S08E07.Thou.Shale.Not.Drill.1080p.WEB-DL.DD5.1.H264-iT00NZ.mkv
Squidbillies.S08E08.The.Squid.Stays.in.the.Picture.1080p.WEB-DL.DD5.1.H264-iT00NZ.mkv
Squidbillies.S08E09.Gun.of.a.Son.1080p.WEB-DL.AAC2.0.H264-iT00NZ.mkv