eries Info

# of Seasons: 5
Country: US
Air Day: Friday
Air Time: 9:00 PM
First Aired: 2008-10-03
Rating: TV-PG
Series Status: Returning Series
Runtime: 30 Minutes
Network: Cartoon Network
Classification: Animation
TVDB Rating: 7.9
External Links:

Star Wars: The Clone Wars (2008)

TV Series – TV_PG 22 min – tvAnimation | tvAction | tvAdventure
7.5

Your rating:

-/10
Ratings: 7.5/10 from 6,006 users
Reviews: 49 user | 13 critic

 

The Grand Army of the Republic, led by Yoda, Mace Windu, Obi-Wan Kenobi, and other Jedi Knights, fights the New Droid Army of the Separatists.

General
Complete name : Star.Wars.The.Clone.Wars.S05E15.dc.720p.BluRay.x264-SiNNERS.mkv
Format : Matroska
Format version : Version 4 / Version 2
File size : 639 MiB
Duration : 22mn 36s
Overall bit rate : 3 948 Kbps

Video
ID : 1
Format : AVC
Format/Info : Advanced Video Codec
Format profile : High@L3.1
Format settings, CABAC : Yes
Format settings, ReFrames : 5 frames
Codec ID : V_MPEG4/ISO/AVC
Duration : 22mn 36s
Bit rate : 2 439 Kbps
Width : 1 280 pixels
Height : 544 pixels
Display aspect ratio : 2.35:1
Frame rate mode : Constant
Frame rate : 23.976 fps
Color space : YUV
Chroma subsampling : 4:2:0
Bit depth : 8 bits
Scan type : Progressive
Bits/(Pixel*Frame) : 0.146
Stream size : 382 MiB (60%)
Writing library : x264 core 138 r2358 9e941d1
Encoding settings : cabac=1 / ref=5 / deblock=1:0:0 / analyse=0x3:0x133 / me=umh / subme=7 /

Audio
ID : 2
Format : DTS
Format/Info : Digital Theater Systems
Mode : 16
Format settings, Endianness : Big
Codec ID : A_DTS
Duration : 22mn 36s
Bit rate mode : Constant
Bit rate : 1 509 Kbps
Channel(s) : 6 channels
Channel positions : Front: L C R, Side: L R, LFE
Sampling rate : 48.0 KHz
Bit depth : 24 bits
Compression mode : Lossy
Stream size : 244 MiB (38%)
Language : English
Default : Yes
Forced : No

Menu
00:00:00.000 : en:00:00:00.000
00:06:40.358 : en:00:06:40.358
00:16:02.712 : en:00:16:02.712
00:21:56.649 : en:00:21:56.649

File Name Size
Star.Wars.The.Clone.Wars.S05E01.720p.BluRay.x264 SiNNERS.mkv 638.46 MB
Star.Wars.The.Clone.Wars.S05E02.720p.BluRay.x264 SiNNERS.mkv 638.67 MB
Star.Wars.The.Clone.Wars.S05E03.720p.BluRay.x264 SiNNERS.mkv 638.55 MB
Star.Wars.The.Clone.Wars.S05E04.720p.BluRay.x264 SiNNERS.mkv 638.83 MB
Star.Wars.The.Clone.Wars.S05E05.720p.BluRay.x264 SiNNERS.mkv 638.42 MB
Star.Wars.The.Clone.Wars.S05E06.720p.BluRay.x264 SiNNERS.mkv 638.34 MB
Star.Wars.The.Clone.Wars.S05E07.720p.BluRay.x264 SiNNERS.mkv 638.55 MB
Star.Wars.The.Clone.Wars.S05E08.720p.BluRay.x264 SiNNERS.mkv 638.71 MB
Star.Wars.The.Clone.Wars.S05E09.720p.BluRay.x264 SiNNERS.mkv 638.61 MB
Star.Wars.The.Clone.Wars.S05E10.720p.BluRay.x264 SiNNERS.mkv 638.65 MB
Star.Wars.The.Clone.Wars.S05E11.720p.BluRay.x264 SiNNERS.mkv 639.23 MB
Star.Wars.The.Clone.Wars.S05E12.720p.BluRay.x264 SiNNERS.mkv 638.92 MB
Star.Wars.The.Clone.Wars.S05E13.720p.BluRay.x264 SiNNERS.mkv 638.77 MB
Star.Wars.The.Clone.Wars.S05E14.dc.720p.BluRay.x264 SiNNERS.mkv 637.49 MB
Star.Wars.The.Clone.Wars.S05E15.dc.720p.BluRay.x264 SiNNERS.mkv 638.68 MB
Star.Wars.The.Clone.Wars.S05E16.720p.BluRay.x264 SiNNERS.mkv 638.49 MB
Star.Wars.The.Clone.Wars.S05E17.720p.BluRay.x264 SiNNERS.mkv 638.48 MB
Star.Wars.The.Clone.Wars.S05E18.720p.BluRay.x264 SiNNERS.mkv 639.23 MB
Star.Wars.The.Clone.Wars.S05E19.720p.BluRay.x264 SiNNERS.mkv 638.67 MB
Star.Wars.The.Clone.Wars.S05E20.720p.BluRay.x264 SiNNERS.mkv 638.52 MB

Screenshot:

Sign up via clicking banner and a file link to creat a premium account.Then Get the access to protected links.

ExtMatrix Download Links

Star.Wars.The.Clone.Wars.S05E01.720p.BluRay.x264-SiNNERS.mkv
Star.Wars.The.Clone.Wars.S05E02.720p.BluRay.x264-SiNNERS.mkv
Star.Wars.The.Clone.Wars.S05E03.720p.BluRay.x264-SiNNERS.mkv
Star.Wars.The.Clone.Wars.S05E04.720p.BluRay.x264-SiNNERS.mkv
Star.Wars.The.Clone.Wars.S05E05.720p.BluRay.x264-SiNNERS.mkv
Star.Wars.The.Clone.Wars.S05E06.720p.BluRay.x264-SiNNERS.mkv
Star.Wars.The.Clone.Wars.S05E07.720p.BluRay.x264-SiNNERS.mkv
Star.Wars.The.Clone.Wars.S05E08.720p.BluRay.x264-SiNNERS.mkv
Star.Wars.The.Clone.Wars.S05E09.720p.BluRay.x264-SiNNERS.mkv
Star.Wars.The.Clone.Wars.S05E10.720p.BluRay.x264-SiNNERS.mkv
Star.Wars.The.Clone.Wars.S05E11.720p.BluRay.x264-SiNNERS.mkv
Star.Wars.The.Clone.Wars.S05E12.720p.BluRay.x264-SiNNERS.mkv
Star.Wars.The.Clone.Wars.S05E13.720p.BluRay.x264-SiNNERS.mkv
Star.Wars.The.Clone.Wars.S05E14.dc.720p.BluRay.x264-SiNNERS.mkv
Star.Wars.The.Clone.Wars.S05E17.720p.BluRay.x264-SiNNERS.mkv
Star.Wars.The.Clone.Wars.S05E18.720p.BluRay.x264-SiNNERS.mkv
Star.Wars.The.Clone.Wars.S05E20.720p.BluRay.x264-SiNNERS.mkv
Star.Wars.The.Clone.Wars.S05E15.dc.720p.BluRay.x264-SiNNERS.mkv
Star.Wars.The.Clone.Wars.S05E16.720p.BluRay.x264-SiNNERS.mkv
Star.Wars.The.Clone.Wars.S05E19.720p.BluRay.x264-SiNNERS.mkv