Basic Instinct 2 720p BluRay DD5 1 x264-CtrlHD

MediaInfo:

RUNTIME…….: 01h 54m
RESOLUTION….: 1280×534
FPS………..: 23,976
CODEC………: x264/2-pass @ L4.1
BITRATE…….: 4780 kbps
AUDIO1……..: DD5.1-english (48000Hz 6ch) 640kbps
AUDIO2……..: OGG2.0-commentary (48000Hz 2ch) 80kbps
SIZE……….: 4479MB
SUBTITLES…..: czech, finnish, hungarian, romanian, bulgarian
CHAPTERS……: YES
================================================================

Birthday Girl 2001 1080p WEBRip DD5 1 x264-NTb

MediaInfo:

================================================================

Chloe 2009 720p BluRay x264-CtrlHD

MediaInfo:

================================================================

Poison Ivy 1992 720p HDTV DD5 1 x264-3k

MediaInfo:

File size : 3.90 GiB
Duration : 1h 31mn
Format profile : x264 High@L4.1
Bit rate : 5 585 Kbps
Width : 1 280 pixels
Height : 676 pixels
Display aspect ratio : 1.893
Frame rate : 23.976 fps
Audio : English AC3 5.1 @ 384 Kbps
Subtitles : English
================================================================

Deception 2008 720p BluRay DTS x264-ESiR

MediaInfo:

================================================================

The Hot Spot 1990 720p BluRay FLAC2 0 x264-SbR

MediaInfo:

================================================================
Plush 2013 1080p BluRay x264 DTS-FGT

MediaInfo:

================================================================

in the cut 2003 720p bluray x264-unveil

MediaInfo:

================================================================

After Dark My Sweet 1990 1080p WEBRip DD2 0 x264-NTb

MediaInfo:

================================================================
Crash 1996 Uncut DvdRip 720p x264 DD 5 1-HighCode

MediaInfo:

General
Complete name : Crash 1996 Uncut DvdRip 720p x264 DD 5.1-HighCode.mkv
Format : Matroska
Format version : Version 4 / Version 2
File size : 1.31 GiB
Duration : 1h 36mn
Overall bit rate : 1 948 Kbps
Video
Format : AVC
Duration : 1h 36mn
Bit rate : 1 525 Kbps
Width : 1 278 pixels
Height : 720 pixels
Display aspect ratio : 16:9
Frame rate mode : Constant
Frame rate : 25.000 fps
Stream size : 1.02 GiB (78%)
Audio
Format : AC-3
Duration : 1h 36mn
Bit rate : 384 Kbps
Channel count : 6 channels
Channel positions : Front: L C R, Side: L R, LFE
Sampling rate : 48.0 KHz
Bit depth : 16 bits
Stream size : 264 MiB (20%)
Title : DD 5.1 @384
Language : English
Text
Format : UTF-8
Codec ID : S_TEXT/UTF8
Codec ID/Info : UTF-8 Plain Text
Language : English,Arabic,Bulgarian,Czech,Dutch,Finnish,French,German,Greek,Hungarian,Indonesian
Italian,Norwegian,Polish,Portuguese,Romanian,Russian,Spanish,Serbian,Turkish,Vietnamese

Default : No
Forced : No
Menu 25 chapters





================================================================
In Secret 2013 1080p WEB-DL DD5 1 H 264 HKD

MediaInfo:

================================================================
The Canyons 2013 720p WEB-DL DD5.1 H 264 KiNGS

MediaInfo:

================================================================
Screenshot:



Sign up via clicking banner and a file link to creat a premium account.Then Get the access to protected links.

ExtMatrix Download Links

Basic.Instinct.2.720p.BluRay.DD5.1.x264-CtrlHD.mkv
Birthday.Girl.2001.1080p.WEBRip.DD5.1.x264-NTb.mkv
Chloe.2009.720p.BluRay.x264-CtrlHD.mkv
Deception.2008.720p.BluRay.DTS.x264-ESiR.mkv
The.Hot.Spot.1990.720p.BluRay.FLAC2.0.x264-SbR.mkv
Poison.Ivy.1992.720p.HDTV.DD5.1.x264-3k.mkv
Plush.2013.1080p.BluRay.x264.DTS-FGT.mkv
Crash 1996 Uncut DvdRip 720p x264 DD 5.1-HighCode.mkv
in.the.cut.2003.720p.bluray.x264-unveil.mkv
After.Dark.My.Sweet.1990.1080p.WEBRip.DD2.0.x264-NTb.mkv
In.Secret.2013.1080p.WEB-DL.DD5.1.H.264.HKD.part4.rar
In.Secret.2013.1080p.WEB-DL.DD5.1.H.264.HKD.part3.rar
In.Secret.2013.1080p.WEB-DL.DD5.1.H.264.HKD.part2.rar
In.Secret.2013.1080p.WEB-DL.DD5.1.H.264.HKD.part1.rar
The.Canyons.2013.720p.WEB-DL.DD5.1.H.264-KiNGS.mkv