Series Info
# of Seasons: 3
Country: UK
Air Day: Friday
Air Time: 9:00 PM
First Aired: 2010-05-05
Rating:
Series Status: Returning Series
Runtime: 60 Minutes
Network: Cinemax
Classification: Scripted
TVDB Rating: 8.7
External Links:

Strike Back (2010– )

TV Series – – tvAction | tvDrama | tvThriller
7.9

Your rating:

-/10
Ratings: 7.9/10 from 7,040 users
Reviews: 44 user | 24 critic

The actions of ‘Section 20′, a secretive unit of the British Secret Intelligence Service. A team of spies conduct several high risk missions throughout the globe.

General
Complete name : strike.back.s03e09.rerip.720p.bluray.x264-demand.mkv
Format : Matroska
Format version : Version 4 / Version 2
File size : 2.18 GiB
Duration : 46mn 13s
Overall bit rate : 6 758 Kbps

Video
ID : 1
Format : AVC
Format/Info : Advanced Video Codec
Format profile : High@L3.1
Format settings, CABAC : Yes
Format settings, ReFrames : 5 frames
Codec ID : V_MPEG4/ISO/AVC
Duration : 46mn 13s
Bit rate : 5 248 Kbps
Width : 1 280 pixels
Height : 720 pixels
Display aspect ratio : 16:9
Frame rate mode : Constant
Frame rate : 23.976 fps
Color space : YUV
Chroma subsampling : 4:2:0
Bit depth : 8 bits
Scan type : Progressive
Bits/(Pixel*Frame) : 0.238
Stream size : 1.65 GiB (76%)
Title : X264
Writing library : x264 core 133 r2334 a3ac64b
Encoding settings : cabac=1 / ref=5 / deblock=1:0:0 / analyse=0x3:0x133 / me=umh / subme=7 /

Audio
ID : 2
Format : DTS
Format/Info : Digital Theater Systems
Mode : 16
Format settings, Endianness : Big
Codec ID : A_DTS
Duration : 46mn 13s
Bit rate mode : Constant
Bit rate : 1 509 Kbps
Channel(s) : 6 channels
Channel positions : Front: L C R, Side: L R, LFE
Sampling rate : 48.0 KHz
Bit depth : 24 bits
Compression mode : Lossy
Stream size : 499 MiB (22%)
Title : DTS
Language : English
Default : Yes
Forced : No

Menu
00:00:00.000 : en:00:00:00.000
00:00:06.006 : en:00:00:06.006
00:07:32.077 : en:00:07:32.077
00:11:17.427 : en:00:11:17.427
00:16:06.007 : en:00:16:06.007
00:25:26.108 : en:00:25:26.108
00:35:44.934 : en:00:35:44.934
00:45:09.999 : en:00:45:09.999

File Name Size
strike.back.s03e01.720p.bluray.x264 demand.mkv 2.18 GB
strike.back.s03e02.720p.bluray.x264 demand.mkv 2.18 GB
strike.back.s03e03.720p.bluray.x264 demand.mkv 2.18 GB
strike.back.s03e04.720p.bluray.x264 demand.mkv 2.18 GB
strike.back.s03e05.720p.bluray.x264 demand.mkv 2.18 GB
strike.back.s03e06.720p.bluray.x264 demand.mkv 2.18 GB
strike.back.s03e07.720p.bluray.x264 demand.mkv 2.18 GB
strike.back.s03e08.720p.bluray.x264 demand.mkv 2.18 GB
strike.back.s03e09.rerip.720p.bluray.x264 demand.mkv 2.18 GB
strike.back.s03e10.720p.bluray.x264 demand.mkv 2.18 GB

Screenshot:

Sign up via clicking banner and a file link to creat a premium account.

ExtMatrix Download Links

strike.back.s03e01.720p.bluray.x264-demand.part1.ra
strike.back.s03e01.720p.bluray.x264-demand.part2.ra
strike.back.s03e02.720p.bluray.x264-demand.part1.ra
strike.back.s03e02.720p.bluray.x264-demand.part2.ra
strike.back.s03e03.720p.bluray.x264-demand.part1.ra
strike.back.s03e03.720p.bluray.x264-demand.part2.ra
strike.back.s03e04.720p.bluray.x264-demand.part1.ra
strike.back.s03e04.720p.bluray.x264-demand.part2.ra
strike.back.s03e05.720p.bluray.x264-demand.part1.ra
strike.back.s03e05.720p.bluray.x264-demand.part2.ra
strike.back.s03e06.720p.bluray.x264-demand.part1.ra
strike.back.s03e06.720p.bluray.x264-demand.part2.ra
strike.back.s03e07.720p.bluray.x264-demand.part1.ra
strike.back.s03e07.720p.bluray.x264-demand.part2.ra
strike.back.s03e08.720p.bluray.x264-demand.part1.ra
strike.back.s03e08.720p.bluray.x264-demand.part2.ra
strike.back.s03e09.rerip.720p.bluray.x264-demand.part1.ra
strike.back.s03e09.rerip.720p.bluray.x264-demand.part2.ra
strike.back.s03e10.720p.bluray.x264-demand.part1.ra
strike.back.s03e10.720p.bluray.x264-demand.part2.ra