Series Info

# of Seasons: 3
Country: US
Air Day: Thursday
Air Time: 10:00 pm
First Aired: 2011-06-23
Rating: TV-14
Series Status: Returning Series
Runtime: 60 Minutes
Network: USA Network
Classification: Scripted
TVDB Rating: 9.0
External Links:

General
Complete name : Suits.S03E01.1080p.WEB-DL.DD5.1.H.264-Abjex.mkv
Format : Matroska
Format version : Version 4 / Version 2
File size : 1.92 GiB
Duration : 47mn 53s
Overall bit rate : 5 735 Kbps

Video
ID : 1
Format : AVC
Format/Info : Advanced Video Codec
Format profile : High@L4.0
Format settings, CABAC : Yes
Format settings, ReFrames : 4 frames
Codec ID : V_MPEG4/ISO/AVC
Duration : 47mn 53s
Bit rate : 5 236 Kbps
Width : 1 920 pixels
Height : 1 080 pixels
Display aspect ratio : 16:9
Frame rate mode : Constant
Frame rate : 23.976 fps
Color space : YUV
Chroma subsampling : 4:2:0
Bit depth : 8 bits
Scan type : Progressive
Bits/(Pixel*Frame) : 0.105
Stream size : 1.75 GiB (91%)
Language : English
Default : Yes
Forced : No
Color primaries : BT.709
Transfer characteristics : BT.709
Matrix coefficients : BT.709

Audio
ID : 2
Format : AC-3
Format/Info : Audio Coding 3
Mode extension : CM (complete main)
Format settings, Endianness : Big
Codec ID : A_AC3
Duration : 47mn 53s
Bit rate mode : Constant
Bit rate : 384 Kbps
Channel(s) : 6 channels
Channel positions : Front: L C R, Side: L R, LFE
Sampling rate : 48.0 KHz
Bit depth : 16 bits
Compression mode : Lossy
Stream size : 132 MiB (7%)
Language : English

Text
Codec ID/Info : UTF-8 Plain Text
Language : English

File name Size
Suits.S03E01.720p.WEB-DL.DD5.1.H.264-HWD.mkv 1.51 GB
Suits.S03E02.720p.WEB-DL.DD5.1.H.264-HWD.mkv 1.29 GB
Suits.S03E03.720p.WEB-DL.DD5.1.H.264-HWD.mkv 1.29 GB
Suits.S03E04.720p.WEB-DL.DD5.1.H.264-HWD.mkv 1.36 GB
Suits.S03E05.720p.WEB-DL.DD5.1.H.264-HWD.mkv 1.32 GB
Suits.S03E06.720p.WEB-DL.DD5.1.H.264-HWD.mkv 1.35 GB
Suits.S03E07.720p.WEB-DL.DD5.1.H.264-HWD.mkv 1.39 GB
Suits.S03E08.720p.WEB-DL.DD5.1.H.264-HWD.mkv 1.34 GB
Suits.S03E09.720p.WEB-DL.DD5.1.H.264-HWD.mkv 1.34 GB
Suits.S03E10.720p.WEB-DL.DD5.1.H.264-HWD.mkv 1.44 GB
Suits.S03E11.Buried.Secrets.720p.WEB-DL.DD5.1.H.264-BS.mkv 1.33 GB
Suits.S03E12.Yesterday’s.Gone.720p.WEB-DL.DD5.1.H.264-BS.mkv 1.32 GB
Suits.S03E13.Moot.Point.720p.WEB-DL.DD5.1.H.264-BS.mkv 1.33 GB
Suits.S03E14.Heartburn.720p.WEB-DL.DD5.1.H.264-BS.mkv 1.38 GB
Suits.S03E15.Know.When.To.Fold’em.720p.WEB-DL.DD5.1.H.264-BS.mkv 1.34 GB
Suits.S03E16.No.Way.Out.720p.WEB-DL.DD5.1.H.264-BS.mkv 1.42 GB
File name Size
Suits.S03E01.1080p.WEB-DL.DD5.1.H.264-HWD.mkv 1.92 GB
Suits.S03E02.1080p.WEB-DL.DD5.1.H.264-HWD.mkv 1.65 GB
Suits.S03E03.1080p.WEB-DL.DD5.1.H.264-HWD.mkv 1.65 GB
Suits.S03E04.1080p.WEB-DL.DD5.1.H.264-HKD.mkv 1.68 GB
Suits.S03E05.1080p.WEB-DL.DD5.1.H.264-HKD.mkv 1.68 GB
Suits.S03E06.1080p.WEB-DL.DD5.1.H.264-HKD.mkv 1.63 GB
Suits.S03E07.1080p.WEB-DL.DD5.1.H.264-HKD.mkv 1.64 GB
Suits.S03E08.1080p.WEB-DL.DD5.1.H.264-HWD.mkv 1.71 GB
Suits.S03E09.1080p.WEB-DL.DD5.1.H.264-HKD.mkv 1.65 GB
Suits.S03E10.1080p.WEB-DL.DD5.1.H.264-HKD.mkv 1.80 GB
Suits.S03E11.Buried.Secrets.1080p.WEB-DL.DD5.1.H.264-BS.mkv 1.66 GB
Suits.S03E12.Yesterday’s.Gone.1080p.WEB-DL.DD5.1.H.264-BS.mkv 1.65 GB
Suits.S03E13.Moot.Point.1080p.WEB-DL.DD5.1.H.264-BS.mkv 1.65 GB
Suits.S03E14.Heartburn.1080p.WEB-DL.DD5.1.H.264-BS.mkv 1.65 GB
Suits.S03E15.Know.When.To.Fold’em.1080p.WEB-DL.DD5.1.H.264-BS.mkv 1.67 GB
Suits.S03E16.No.Way.Out.1080p.WEB-DL.DD5.1.H.264-BS.mkv 1.74 GB

Screenshot:

Sign up via clicking banner and a file link to creat a premium account.

ExtMatrix Download Links

Suits.S03E01.720p.WEB-DL.DD5.1.H.264-HWD.ra
Suits.S03E02.720p.WEB-DL.DD5.1.H.264-HWD.ra
Suits.S03E03.720p.WEB-DL.DD5.1.H.264-HWD.ra
Suits.S03E04.720p.WEB-DL.DD5.1.H.264-HWD.ra
Suits.S03E05.720p.WEB-DL.DD5.1.H.264-HWD.ra
Suits.S03E06.720p.WEB-DL.DD5.1.H.264-HWD.ra
Suits.S03E07.720p.WEB-DL.DD5.1.H.264-HWD.ra
Suits.S03E08.720p.WEB-DL.DD5.1.H.264-HWD.ra
Suits.S03E09.720p.WEB-DL.DD5.1.H.264-HWD.ra
Suits.S03E10.720p.WEB-DL.DD5.1.H.264-HWD.ra
Suits.S03E11.Buried.Secrets.720p.WEB-DL.DD5.1.H.264-BS.ra
Suits.S03E12.Yesterday.s.Gone.720p.WEB-DL.DD5.1.H.264-BS.ra
Suits.S03E13.Moot.Point.720p.WEB-DL.DD5.1.H.264-BS.ra
Suits.S03E14.Heartburn.720p.WEB-DL.DD5.1.H.264-BS.ra
Suits.S03E15.Know.When.To.Fold.em.720p.WEB-DL.DD5.1.H.264-BS.ra
Suits.S03E16.No.Way.Out.720p.WEB-DL.DD5.1.H.264-BS.ra

Click Here for downloading links Suits S03 Complete 1080p WEB-DL DD5.1 H.264 HWD HKD BS