External Links:

General
Complete name : Sullivan.and.Son.S02E03.Ladies.Night.1080p.WEB-DL.DD5.1.H.264-ASZA.mkv
Format : Matroska
Format version : Version 4 / Version 2
File size : 866 MiB
Duration : 21mn 8s
Overall bit rate : 5 725 Kbps
Movie name : ripped by AssenzA for CrazyHDSource.com
Encoded date : UTC 2013-06-28 19:41:52
Writing application : mkvmerge v6.3.0 (‘You can’t stop me!’) built on Jun 27 2013 22:06:07
Writing library : libebml v1.3.0 + libmatroska v1.4.0

Video
ID : 1
Format : AVC
Format/Info : Advanced Video Codec
Format profile : High@L4.0
Format settings, CABAC : Yes
Format settings, ReFrames : 4 frames
Codec ID : V_MPEG4/ISO/AVC
Duration : 21mn 8s
Bit rate : 5 227 Kbps
Width : 1 920 pixels
Height : 1 080 pixels
Display aspect ratio : 16:9
Frame rate mode : Constant
Frame rate : 23.976 fps
Color space : YUV
Chroma subsampling : 4:2:0
Bit depth : 8 bits
Scan type : Progressive
Bits/(Pixel*Frame) : 0.105
Stream size : 790 MiB (91%)
Title : ripped by AssenzA for CrazyHDSource.com
Language : English
Default : Yes
Forced : No
Color primaries : BT.709
Transfer characteristics : BT.709
Matrix coefficients : BT.709

Audio
ID : 2
Format : AC-3
Format/Info : Audio Coding 3
Mode extension : CM (complete main)
Format settings, Endianness : Big
Codec ID : A_AC3
Duration : 21mn 8s
Bit rate mode : Constant
Bit rate : 384 Kbps
Channel(s) : 6 channels
Channel positions : Front: L C R, Side: L R, LFE
Sampling rate : 48.0 KHz
Bit depth : 16 bits
Compression mode : Lossy
Stream size : 58.1 MiB (7%)
Language : English
Default : Yes
Forced : No

Screenshot:

Sign up via clicking banner and a file link to creat a premium account.

ExtMatrix Download Links
Sullivan.and.Son.S02E03.Ladies.Night.1080p.WEB-DL.DD5.1.H.264-ASZA.mkv
Sullivan.and.Son.S02E10.Reunited.1080p.WEB-DL.DD5.1.H.264-ASZA.mkv