The After S01E01 Pilot 720p AI WEBRip DD5.1 x264 NTb

External Links: The After S01E01 Pilot 720p AI WEBRip DD5.1 x264 NTb The After S01E01 Pilot 720p AI WEBRip DD5.1 x264 NTb The After S01E01 Pilot 720p AI WEBRip DD5.1 x264 NTb

General
Complete name : The.After.S01E01.Pilot.720p.AI.WEBRip.DD5.1.×264-NTb.mkv
Format : Matroska
Format version : Version 2
File size : 1.51 GiB
Duration : 54mn 26s
Overall bit rate : 3 962 Kbps

Video
ID : 1
Format : AVC
Format/Info : Advanced Video Codec
Format profile : High@L4.1
Format settings, CABAC : Yes
Format settings, ReFrames : 9 frames
Codec ID : V_MPEG4/ISO/AVC
Duration : 54mn 26s
Bit rate : 3 244 Kbps
Width : 1 280 pixels
Height : 720 pixels
Display aspect ratio : 16:9
Frame rate mode : Constant
Frame rate : 23.976 fps
Color space : YUV
Chroma subsampling : 4:2:0
Bit depth : 8 bits
Scan type : Progressive
Bits/(Pixel*Frame) : 0.147
Stream size : 1.23 GiB (82%)
Writing library : x264 core 140 r2377 1ca7bb9
Encoding settings : cabac=1 / ref=9 / deblock=1:-3:-2 / analyse=0x3:0x133 / me=umh / subme=10 / psy=1 /

Audio
ID : 2
Format : AC-3
Format/Info : Audio Coding 3
Mode extension : CM (complete main)
Format settings, Endianness : Big
Codec ID : A_AC3
Duration : 54mn 26s
Bit rate mode : Constant
Bit rate : 640 Kbps
Channel(s) : 6 channels
Channel positions : Front: L C R, Side: L R, LFE
Sampling rate : 48.0 KHz
Bit depth : 16 bits
Compression mode : Lossy
Delay relative to video : 20ms
Stream size : 249 MiB (16%)
Language : English
Default : Yes
Forced : No
Screenshot:
The After S01E01 Pilot 720p AI WEBRip DD5.1 x264 NTb

Sign up via clicking banner and a file link to creat a premium account.Then Get the access to protected links.
The After S01E01 Pilot 720p AI WEBRip DD5.1 x264 NTb
ExtMatrix Download Links

The.After.S01E01.Pilot.720p.AI.WEBRip.DD5.1.x264-NTb.mkv