External Links:

General
Complete name : The.Assets.S01E01.My.Name.is.Aldrich.Ames.1080p.WEB-DL.DD5.1.H.264-NTb.mkv
Format : Matroska
Format version : Version 2
File size : 1.55 GiB
Duration : 40mn 31s
Overall bit rate : 5 490 Kbps

Video
ID : 1
Format : AVC
Format/Info : Advanced Video Codec
Format profile : High@L4.0
Format settings, CABAC : Yes
Format settings, ReFrames : 4 frames
Codec ID : V_MPEG4/ISO/AVC
Duration : 40mn 31s
Bit rate : 4 997 Kbps
Width : 1 920 pixels
Height : 1 080 pixels
Display aspect ratio : 16:9
Frame rate mode : Constant
Frame rate : 23.976 fps
Color space : YUV
Chroma subsampling : 4:2:0
Bit depth : 8 bits
Scan type : Progressive
Bits/(Pixel*Frame) : 0.101
Stream size : 1.41 GiB (91%)
Language : English
Default : Yes
Forced : No
Color primaries : BT.709
Transfer characteristics : BT.709
Matrix coefficients : BT.709

Audio
ID : 2
Format : AC-3
Format/Info : Audio Coding 3
Mode extension : CM (complete main)
Format settings, Endianness : Big
Codec ID : A_AC3
Duration : 40mn 31s
Bit rate mode : Constant
Bit rate : 384 Kbps
Channel(s) : 6 channels
Channel positions : Front: L C R, Side: L R, LFE
Sampling rate : 48.0 KHz
Bit depth : 16 bits
Compression mode : Lossy
Stream size : 111 MiB (7%)
Language : English
Default : Yes
Forced : No

Text
ID : 3
Format : UTF-8
Codec ID : S_TEXT/UTF8
Codec ID/Info : UTF-8 Plain Text
Title : CC
Language : English
Default : No
Forced : No

The.Assets.S01E01.My.Name.is.Aldrich.Ames.1080p.WEB DL.DD5.1.H.264 NTb.mkv 1.55 GB
The.Assets.S01E02.Jewel.In.the.Crown.1080p.WEB DL.DD5.1.H.264 HKD.mkv 1.59 GB
The.Assets.S01E03.Trip.to.Vienna.1080p.WEB DL.DD5.1.H.264 HKD.mkv 1.61 GB
The.Assets.S01E04.What’s.Done.is.Done.1080p.WEB DL.DD5.1.H.264 NTb.mkv 1.60 GB
The.Assets.S01E05.Check.Mate.1080p.WEB DL.DD5.1.H.264 NTb.mkv 1.61 GB
The.Assets.S01E06.Small.Useless.Truth.1080p.WEB DL.DD5.1.H.264 NTb.mkv 1.62 GB
The.Assets.S01E07.The.Straw.Poll.1080p.WEB DL.DD5.1.H.264 NTb.mkv 1.60 GB
The.Assets.S01E08.Avenger.1080p.WEB DL.DD5.1.H.264 NTb.mkv 1.65 GB

Screenshot:

Sign up via clicking banner and a file link to creat a premium account.Then Get the access to protected links.

ExtMatrix Download Links

The.Assets.S01E01.My.Name.is.Aldrich.Ames.1080p.WEB-DL.DD5.1.H.264-NTb.mkv