External Links:

General
Complete name : The.Best.Laid.Plans.S01E02.Running.To.Lose.720p.WEB-DL.DD5.1.h264-jAh.mkv
Format : Matroska
Format version : Version 2
File size : 1.38 GiB
Duration : 44mn 1s
Overall bit rate : 4 503 Kbps

Video
ID : 1
Format : AVC
Format/Info : Advanced Video Codec
Format profile : High@L3.1
Format settings, CABAC : No
Format settings, ReFrames : 2 frames
Codec ID : V_MPEG4/ISO/AVC
Duration : 44mn 1s
Bit rate : 4 030 Kbps
Width : 1 280 pixels
Height : 720 pixels
Display aspect ratio : 16:9
Frame rate mode : Constant
Frame rate : 23.976 fps
Color space : YUV
Chroma subsampling : 4:2:0
Bit depth : 8 bits
Scan type : Progressive
Bits/(Pixel*Frame) : 0.182
Stream size : 1.24 GiB (89%)
Language : English
Default : Yes
Forced : No
Color primaries : BT.709
Transfer characteristics : BT.709
Matrix coefficients : BT.709

Audio
ID : 2
Format : AC-3
Format/Info : Audio Coding 3
Mode extension : CM (complete main)
Format settings, Endianness : Big
Codec ID : A_AC3
Duration : 44mn 1s
Bit rate mode : Constant
Bit rate : 384 Kbps
Channel(s) : 6 channels
Channel positions : Front: L C R, Side: L R, LFE
Sampling rate : 48.0 KHz
Bit depth : 16 bits
Compression mode : Lossy
Stream size : 121 MiB (9%)
Language : English
Default : Yes
Forced : No

Screenshot:

Sign up via clicking banner and a file link to creat a premium account.Then Get the access to protected links.

ExtMatrix Download Links

The.Best.Laid.Plans.S01E01.Heres.The.Deal.720p.WEB-DL.DD5.1.h264-jAh.mkv
The.Best.Laid.Plans.S01E02.Running.To.Lose.720p.WEB-DL.DD5.1.h264-jAh.mkv
The.Best.Laid.Plans.S01E03.Raise.A.Little.Hell.720p.WEB-DL.DD5.1.h264-jAh.mkv
The.Best.Laid.Plans.S01E04.You.Had.An.Option.Sir.720p.WEB-DL.DD5.1.h264-jAh.mkv