External Links:

General
Complete name : The.Big.Bang.Theory.S07E02.1080p.WEB-DL.DD5.1.H.264.HKD.mkv
Format : Matroska
Format version : Version 4 / Version 2
File size : 860 MiB
Duration : 21mn 19s
Overall bit rate : 5 636 Kbps
Movie name : ripped by CrazyHDSource.com

Video
ID : 1
Format : AVC
Format/Info : Advanced Video Codec
Format profile : High@L4.0
Format settings, CABAC : Yes
Format settings, ReFrames : 4 frames
Codec ID : V_MPEG4/ISO/AVC
Duration : 21mn 19s
Bit rate : 5 140 Kbps
Width : 1 920 pixels
Height : 1 080 pixels
Display aspect ratio : 16:9
Frame rate mode : Constant
Frame rate : 23.976 fps
Color space : YUV
Chroma subsampling : 4:2:0
Bit depth : 8 bits
Scan type : Progressive
Bits/(Pixel*Frame) : 0.103
Stream size : 784 MiB (91%)
Title : ripped by CrazyHDSource.com
Language : English
Default : Yes
Forced : No
Color primaries : BT.709
Transfer characteristics : BT.709
Matrix coefficients : BT.709

Audio
ID : 2
Format : AC-3
Format/Info : Audio Coding 3
Mode extension : CM (complete main)
Format settings, Endianness : Big
Codec ID : A_AC3
Duration : 21mn 19s
Bit rate mode : Constant
Bit rate : 384 Kbps
Channel(s) : 6 channels
Channel positions : Front: L C R, Side: L R, LFE
Sampling rate : 48.0 KHz
Bit depth : 16 bits
Compression mode : Lossy
Stream size : 58.6 MiB (7%)
Language : English
Default : Yes
Forced : No

Text
ID : 3
Format : UTF-8
Codec ID : S_TEXT/UTF8
Codec ID/Info : UTF-8 Plain Text
Language : English
Default : No
Forced : No

Includes The Big Bang Theory S07 Itunes Season Pass Extras 720p WEB-DL H 264

File Name Size
The.Big.Bang.Theory.S07.Comic-Con.Panel.720p.WEB-DL.H.264.mkv 917.20 MB
The.Big.Bang.Theory.S07.Electromagnetism.720p.WEB-DL.H.264.mkv 315.65 MB
The.Big.Bang.Theory.S07.Johnny.Galecki.Crashed.Comic-Con.720p.WEB-DL.H.264.mkv 106.87 MB
The.Big.Bang.Theory.S07.PaleyFest.2013.720p.WEB-DL.H.264.mkv 849.49 MB

Screenshot:

Sign up via clicking banner and a file link to creat a premium account.Then Get the access to protected links.

ExtMatrix Download Links

The.Big.Bang.Theory.S07.Comic-Con.Panel.720p.WEB-DL.H.264.mkv
The.Big.Bang.Theory.S07.Electromagnetism.720p.WEB-DL.H.264.mkv
The.Big.Bang.Theory.S07.Johnny.Galecki.Crashed.Comic-Con.720p.WEB-DL.H.264.mkv
The.Big.Bang.Theory.S07.PaleyFest.2013.720p.WEB-DL.H.264.mkv
The.Big.Bang.Theory.S07E01.The.Hofstadter.Insufficiency.720p.WEB-DL.DD5.1.H.264.mkv
The.Big.Bang.Theory.S07E02.The.Deception.Verification.720p.WEB-DL.DD5.1.H.264.mkv
The.Big.Bang.Theory.S07E03.The.Scavenger.Vortex.720p.WEB-DL.DD5.1.H.264.mkv
The.Big.Bang.Theory.S07E04.The.Raiders.Minimization.720p.WEB-DL.DD5.1.H.264.mkv
The.Big.Bang.Theory.S07E05.The.Workplace.Proximity.720p.WEB-DL.DD5.1.H.264.mkv
The.Big.Bang.Theory.S07E07.The.Proton.Displacement.720p.WEB-DL.DD5.1.H.264.mkv
The.Big.Bang.Theory.S07E08.The.Itchy.Brain.Simulation.720p.WEB-DL.DD5.1.H.264.mkv
The.Big.Bang.Theory.S07E10.The.Discovery.Dissipation.720p.WEB-DL.DD5.1.H.264.mkv
The.Big.Bang.Theory.S07E10.1080p.WEB-DL.DD5.1.H.264.HKD.part1.rar
The.Big.Bang.Theory.S07E10.1080p.WEB-DL.DD5.1.H.264.HKD.part2.rar
The.Big.Bang.Theory.S07E11.The.Cooper.Extraction.720p.WEB-DL.DD5.1.H.264.mkv
The.Big.Bang.Theory.S07E12.The.Hesitation.Ramification.720p.WEB-DL.DD5.1.H.264.mkv

Click Here for downloading links The Big Bang Theory S07E01 S07E02 1080p WEB-DL DD5 1 H 264 HKD

Click Here for downloading links The Big Bang Theory S07E03 1080p WEB-DL DD5 1 H 264 HKD

Click Here for downloading links The Big Bang Theory S07E04 1080p WEB-DL DD5 1 H 264 HKD

Click Here for downloading links The Big Bang Theory S07E05 1080p WEB-DL DD5 1 H 264 HKD

Click Here for downloading links The Big Bang Theory S07E06 1080p WEB-DL DD5 1 H 264 HKD

Click Here for downloading links The Big Bang Theory S07E07 1080p WEB-DL DD5 1 H 264 HKD

Click Here for downloading links The Big Bang Theory S07E08 1080p WEB-DL DD5 1 H 264 HKD

Click Here for downloading links The Big Bang Theory S07E09 1080p WEB-DL DD5 1 H 264 HKD

Click Here for downloading links The Big Bang Theory S07E11 1080p WEB-DL DD5 1 H 264 HKD

Click Here for downloading links The Big Bang Theory S07E12 1080p WEB-DL DD5 1 H 264 HKD