Useful link:

IMDB

TVRAGE

TVDB

MediaInfo:
General
Complete name : The.Big.Bang.Theory.S08E02.1080p.WEB-DL.DD5.1.H.264.HKD.mkv
Format : Matroska
Format version : Version 4 / Version 2
File size : 775 MiB
Duration : 19mn 53s
Overall bit rate : 5 447 Kbps
Movie name : ripped by CrazyHDSource.com

Video
ID : 1
Format : AVC
Format/Info : Advanced Video Codec
Format profile : High@L4.0
Format settings, CABAC : Yes
Format settings, ReFrames : 4 frames
Codec ID : V_MPEG4/ISO/AVC
Duration : 19mn 53s
Bit rate : 4 955 Kbps
Width : 1 916 pixels
Height : 1 076 pixels
Display aspect ratio : 16:9
Frame rate mode : Constant
Frame rate : 23.976 fps
Color space : YUV
Chroma subsampling : 4:2:0
Bit depth : 8 bits
Scan type : Progressive
Bits/(Pixel*Frame) : 0.100
Stream size : 705 MiB (91%)
Title : ripped by CrazyHDSource.com
Language : English
Default : Yes
Forced : No
Color primaries : BT.709
Transfer characteristics : BT.709
Matrix coefficients : BT.709

Audio
ID : 2
Format : AC-3
Format/Info : Audio Coding 3
Mode extension : CM (complete main)
Format settings, Endianness : Big
Codec ID : A_AC3
Duration : 19mn 53s
Bit rate mode : Constant
Bit rate : 384 Kbps
Channel(s) : 6 channels
Channel positions : Front: L C R, Side: L R, LFE
Sampling rate : 48.0 KHz
Bit depth : 16 bits
Compression mode : Lossy
Stream size : 54.6 MiB (7%)
Language : English
Default : Yes
Forced : No

Text
ID : 3
Format : UTF-8
Codec ID : S_TEXT/UTF8
Codec ID/Info : UTF-8 Plain Text
Language : English
Default : No
Forced : No

Screenshot:

Sign up via clicking banner and a file link to creat a premium account.Then Get the access to protected links.

ExtMatrix Download Links

The Big Bang Theory S08E01 The Locomotion Interruption 720p WEB-DL DD5.1 H.264-Oosh.mkv
The Big Bang Theory S08E02 The Junior Professor Solution 720p WEB-DL DD5.1 H.264-Oosh.mkv
The Big Bang Theory S08E03 The First Pitch Insufficiency 720p WEB-DL DD5.1 H.264-Oosh.mkv
The Big Bang Theory S08E04 The Hook-Up Reverberation 720p WEB-DL DD5.1 H.264-Oosh.mkv
The Big Bang Theory S08E05 The Focus Attenuation 720p WEB-DL DD5.1 H.264-Oosh.mkv
The Big Bang Theory S08E06 The Expedition Approximation 720p WEB-DL DD5.1 H.264-Oosh.mkv
The Big Bang Theory S08E07 The Misinterpretation Agitation 720p WEB-DL DD5.1 H.264-Oosh.mkv
The Big Bang Theory S08E08 The Prom Equivalency 720p WEB-DL DD5.1 H.264-Oosh.mkv

Click Here for downloading links The Big Bang Theory S08E01 S08E02 1080p WEB-DL DD5 1 H 264 HKD

Click Here for downloading links The Big Bang Theory S08E03 1080p WEB-DL DD5 1 H 264 HKD

Click Here for downloading links The Big Bang Theory S08E04 1080p WEB-DL DD5 1 H 264 HKD

Click Here for downloading links The Big Bang Theory S08E05 1080p WEB-DL DD5 1 H 264 HKD

Click Here for downloading links The Big Bang Theory S08E06 1080p WEB-DL DD5 1 H 264 HKD

Click Here for downloading links The Big Bang Theory S08E07 1080p WEB-DL DD5 1 H 264 HKD

Click Here for downloading links The Big Bang Theory S08E08 1080p WEB-DL DD5 1 H 264 HKD