External Links:

23th.Sep.2013

General
Complete name : The.Blacklist.S01E01.1080p.WEB-DL.DD5.1.H.264.HKD.mkv
Format : Matroska
Format version : Version 4 / Version 2
File size : 1.78 GiB
Duration : 45mn 8s
Overall bit rate : 5 638 Kbps
Movie name : ripped by CrazyHDSource.com

Video
ID : 1
Format : AVC
Format/Info : Advanced Video Codec
Format profile : High@L4.0
Format settings, CABAC : Yes
Format settings, ReFrames : 4 frames
Codec ID : V_MPEG4/ISO/AVC
Duration : 45mn 8s
Bit rate : 5 142 Kbps
Width : 1 916 pixels
Height : 1 076 pixels
Display aspect ratio : 16:9
Frame rate mode : Constant
Frame rate : 23.976 fps
Color space : YUV
Chroma subsampling : 4:2:0
Bit depth : 8 bits
Scan type : Progressive
Bits/(Pixel*Frame) : 0.104
Stream size : 1.62 GiB (91%)
Title : ripped by CrazyHDSource.com
Language : English
Default : Yes
Forced : No
Color primaries : BT.709
Transfer characteristics : BT.709
Matrix coefficients : BT.709

Audio
ID : 2
Format : AC-3
Format/Info : Audio Coding 3
Mode extension : CM (complete main)
Format settings, Endianness : Big
Codec ID : A_AC3
Duration : 45mn 8s
Bit rate mode : Constant
Bit rate : 384 Kbps
Channel(s) : 6 channels
Channel positions : Front: L C R, Side: L R, LFE
Sampling rate : 48.0 KHz
Bit depth : 16 bits
Compression mode : Lossy
Stream size : 124 MiB (7%)
Language : English
Default : Yes
Forced : No

Text
ID : 3
Format : UTF-8
Codec ID : S_TEXT/UTF8
Codec ID/Info : UTF-8 Plain Text
Language : English
Default : No
Forced : No

The.Blacklist.S01.The.Chosen.One.1080p.WEB-DL.AAC2.0.H.264.HKD.mkv 150.96 MB
Screenshot:

Sign up via clicking banner and a file link to creat a premium account.Then Get the access to protected links.

ExtMatrix Download Links

The.Blacklist.S01.The.Chosen.One.1080p.WEB-DL.AAC2.0.H.264.HKD.mkv
The.Blacklist.S01E01.1080p.WEB-DL.DD5.1.H.264.HKD.part1.rar
The.Blacklist.S01E01.1080p.WEB-DL.DD5.1.H.264.HKD.part2.rar
The.Blacklist.S01E02.The.Freelancer.1080p.WEB-DL.DD5.1.H.264-NTb.mkv
The.Blacklist.S01E03.Wujing.1080p.WEB-DL.DD5.1.H.264-NTb.mkv
The.Blacklist.S01E04.The.Stewmaker.1080p.WEB-DL.DD5.1.H.264-NTb.mkv
The.Blacklist.S01E06.Gina.Zanetakos.1080p.WEB-DL.DD5.1.H.264-NTb.mkv
The.Blacklist.S01E07.Frederick.Barnes.1080p.WEB-DL.DD5.1.H.264-NTb.mkv
The.Blacklist.S01E08.General.Ludd.1080p.WEB-DL.DD5.1.H.264-NTb.mkv

 

Click Here for downloading links The Blacklist S01E05 1080p pWEB-DL DD5 1 H 264 HKD

Click Here for downloading links The Blacklist S01E09 1080p WEB-DL pDD5 1 H 264 HKD

Click Here for downloading links The Blacklist S01E10 p1080pp WEB-DL DD5 1 H 264 HKD

Click Here for downloading links The Blacklist S01E11 pp1080p WEB-DL DD5 1 H 264 HKD

Click Here for downloading links The Blacklist S01E12 p1080p WEB-DL DD5 1 H 264 HKD