External Links:

General
Complete name : The.Bridge.US.S01E01.Pilot.1080p.WEB-DL.DD5.1.H.264-BS.mkv
Format : Matroska
Format version : Version 2
File size : 2.48 GiB
Duration : 1h 4mn
Overall bit rate : 5 509 Kbps
Writing application : mkvmerge v5.8.0 (‘No Sleep / Pillow’) built on Sep 2 2012 15:37:04
Writing library : libebml v1.2.3 + libmatroska v1.3.0

Video
ID : 1
Format : AVC
Format/Info : Advanced Video Codec
Format profile : High@L4.0
Format settings, CABAC : Yes
Format settings, ReFrames : 4 frames
Codec ID : V_MPEG4/ISO/AVC
Duration : 1h 4mn
Bit rate : 5 016 Kbps
Width : 1 912 pixels
Height : 1 072 pixels
Display aspect ratio : 16:9
Frame rate mode : Constant
Frame rate : 23.976 fps
Color space : YUV
Chroma subsampling : 4:2:0
Bit depth : 8 bits
Scan type : Progressive
Bits/(Pixel*Frame) : 0.102
Stream size : 2.26 GiB (91%)
Language : English
Default : Yes
Forced : No
Color primaries : BT.709
Transfer characteristics : BT.709
Matrix coefficients : BT.709

Audio
ID : 2
Format : AC-3
Format/Info : Audio Coding 3
Mode extension : CM (complete main)
Format settings, Endianness : Big
Codec ID : A_AC3
Duration : 1h 4mn
Bit rate mode : Constant
Bit rate : 384 Kbps
Channel(s) : 6 channels
Channel positions : Front: L C R, Side: L R, LFE
Sampling rate : 48.0 KHz
Bit depth : 16 bits
Compression mode : Lossy
Stream size : 177 MiB (7%)
Language : English
Default : Yes
Forced : No

Text
ID : 3
Format : UTF-8
Codec ID : S_TEXT/UTF8
Codec ID/Info : UTF-8 Plain Text
Title : CC
Language : English
Default : No
Forced : No

Screenshot:

Sign up via clicking banner and a file link to creat a premium account.

ExtMatrix Download Links
The.Bridge.US.S01E01.Pilot.1080p.WEB-DL.DD5.1.H.264-BS.mkv
The.Bridge.US.S01E02.Calaca.1080p.WEB-DL.DD5.1.H.264-BS.mkv
The.Bridge.US.S01E03.Rio.1080p.WEB-DL.DD5.1.H.264-Abjex.mkv
The.Bridge.US.S01E04.Maria.of.the.Desert.1080p.WEB-DL.DD5.1.H.264-BS.mkv
The.Bridge.US.S01E06.ID.1080p.WEB-DL.DD5.1.H.264-BS.mkv
The.Bridge.US.S01E07.Destino.1080p.WEB-DL.DD5.1.H.264-BS.mkv
The.Bridge.US.S01E08.Vendetta.1080p.WEB-DL.DD5.1.H.264-BS.mkv
The.Bridge.US.S01E09.The.Beetle.1080p.WEB-DL.DD5.1.H.264-BS.mkv
The.Bridge.US.S01E10.720p.HDTV.x264-IMMERSE.mkv
The.Bridge.US.S01E10.Old.Friends.1080p.WEB-DL.DD5.1.H.264-BS.mkv
The.Bridge.US.S01E12.720p.HDTV.x264-IMMERSE.mkv
The.Bridge.US.S01E12.All.About.Eva.1080p.WEB-DL.DD5.1.H.264-BS.mkv
The.Bridge.US.S01E13.720p.HDTV.x264-IMMERSE.mkv
The.Bridge.US.S01E13.The.Crazy.Place.1080p.WEB-DL.DD5.1.H.264-BS.mkv

Click Here for downloading links The Bridge US S01E05 1080p WEB-DL DD5.1 H.264 HKD

Click Here for downloading links The Bridge US S01E11 1080p WEB-DL DD5.1 H.264 HKD