Series Info
# of Seasons: 2
Country: US
Air Day: Monday
Air Time: 8:00 PM
First Aired: 2013-01-14
Rating:
Series Status: New Series
Runtime: 60 Minutes
Network: The CW
Classification: Scripted
TVDB Rating: 0.0
External Links:

 The Carrie Diaries (2012– )

TV Series  –  30 min  –  tvComedy | tvRomance
3.9

Your rating:

   -/10
Ratings: 3.9/10 from 494 users
Reviews: 5 user

 

Carrie Bradshaw is in her senior year of high school in the early 1980s. She asks her first questions about love, sex, friendship and family while navigating the worlds of high school and Manhattan.

 

General
Complete name : The.Carrie.Diaries.S02E06.1080p.WEB-DL.DD5.1.H.264.HKD.mkv
Format : Matroska
Format version : Version 4 / Version 2
File size : 1.63 GiB
Duration : 42mn 27s
Overall bit rate : 5 485 Kbps
Movie name : ripped by CrazyHDSource.com

Video
ID : 1
Format : AVC
Format/Info : Advanced Video Codec
Format profile : High@L4.0
Format settings, CABAC : Yes
Format settings, ReFrames : 4 frames
Codec ID : V_MPEG4/ISO/AVC
Duration : 42mn 27s
Bit rate : 4 991 Kbps
Width : 1 916 pixels
Height : 1 076 pixels
Display aspect ratio : 16:9
Frame rate mode : Constant
Frame rate : 23.976 fps
Color space : YUV
Chroma subsampling : 4:2:0
Bit depth : 8 bits
Scan type : Progressive
Bits/(Pixel*Frame) : 0.101
Stream size : 1.48 GiB (91%)
Title : ripped by CrazyHDSource.com
Language : English
Default : Yes
Forced : No
Color primaries : BT.709
Transfer characteristics : BT.709
Matrix coefficients : BT.709

Audio
ID : 2
Format : AC-3
Format/Info : Audio Coding 3
Mode extension : CM (complete main)
Format settings, Endianness : Big
Codec ID : A_AC3
Duration : 42mn 27s
Bit rate mode : Constant
Bit rate : 384 Kbps
Channel(s) : 6 channels
Channel positions : Front: L C R, Side: L R, LFE
Sampling rate : 48.0 KHz
Bit depth : 16 bits
Compression mode : Lossy
Stream size : 117 MiB (7%)
Language : English
Default : Yes
Forced : No

Text
ID : 3
Format : UTF-8
Codec ID : S_TEXT/UTF8
Codec ID/Info : UTF-8 Plain Text
Language : English
Default : No
Forced : No

Screenshot:

Sign up via clicking banner and a file link to creat a premium account.Then Get the access to protected links.

ExtMatrix Download Links

The.Carrie.Diaries.S02E04.720p.HDTV.X264-DIMENSION.mkv
The.Carrie.Diaries.S02E05.720p.HDTV.X264-DIMENSION.mkv
The.Carrie.Diaries.S02E06.1080p.WEB-DL.DD5.1.H.264.HKD.part1.rar
The.Carrie.Diaries.S02E06.1080p.WEB-DL.DD5.1.H.264.HKD.part2.rar
The.Carrie.Diaries.S02E07.1080p.WEB-DL.DD5.1.H.264-KiNGS.mkv
The.Carrie.Diaries.S02E08.720p.HDTV.X264-DIMENSION.mkv
The.Carrie.Diaries.S02E09.720p.HDTV.X264-DIMENSION.mkv

Click Here for downloading links The Carrie Diaries S02E01 1080p WEB-DL DD5 1 H 264 HKD

Click Here for downloading links The Carrie Diaries S02E02 1080p WEB-DL DD5 1 H 264 HKD

Click Here for downloading links The Carrie Diaries S02E03 720p WEB-DL DD5 1 H 264 HKD

Click Here for downloading links The Carrie Diaries S02E04 1080p WEB-DL DD5 1 H 264 HKD

Click Here for downloading links The Carrie Diaries S02E03 S02E05 1080p WEB-DL DD5 1 H 264 HKD

Click Here for downloading links The Carrie Diaries S02E08 1080p WEB-DL DD5 1 H 264 HKD

Click Here for downloading links The Carrie Diaries S02E09 1080p WEB-DL DD5 1 H 264 HKD

Click Here for downloading links The Carrie Diaries S02E10 1080p WEB-DL DD5 1 H 264 HKD