External Links:

General
Complete name : The Comeback 109 – Valerie Hangs with the Cool Kids.mkv
Format : Matroska
Format version : Version 2
File size : 526 MiB
Duration : 29mn 41s
Overall bit rate : 2 477 Kbps

Video
ID : 1
Format : AVC
Format/Info : Advanced Video Codec
Format profile : High@L3.1
Format settings, CABAC : Yes
Format settings, ReFrames : 9 frames
Codec ID : V_MPEG4/ISO/AVC
Duration : 29mn 41s
Bit rate : 2 236 Kbps
Width : 710 pixels
Height : 480 pixels
Display aspect ratio : 4:3
Frame rate mode : Constant
Frame rate : 23.976 fps
Color space : YUV
Chroma subsampling : 4:2:0
Bit depth : 8 bits
Scan type : Progressive
Bits/(Pixel*Frame) : 0.274
Stream size : 475 MiB (90%)
Writing library : x264 core 120
Encoding settings : cabac=1 / ref=9 / deblock=1:-2:-2 / analyse=0x3:0x133 / me=umh / subme=9 / psy=1 /

Audio
ID : 2
Format : AC-3
Format/Info : Audio Coding 3
Mode extension : CM (complete main)
Format settings, Endianness : Big
Codec ID : A_AC3
Duration : 29mn 41s
Bit rate mode : Constant
Bit rate : 192 Kbps
Channel(s) : 2 channels
Channel positions : Front: L R
Sampling rate : 48.0 KHz
Bit depth : 16 bits
Compression mode : Lossy
Stream size : 40.8 MiB (8%)
Language : English
Default : Yes
Forced : No

Menu
00:00:00.000 : Chapter 1
00:00:08.675 : Chapter 2
00:15:41.106 : Chapter 3
00:28:11.106 : Chapter 4

File Name Size
The Comeback 101 Pilot.mkv 564.74 MB
The Comeback 102 Valerie Triumphs at the Upfronts.mkv 492.78 MB
The Comeback 103 Valerie Bonds with the Cast.mkv 481.44 MB
The Comeback 104 Valerie Stands up for Aunt Sassy.mkv 563.17 MB
The Comeback 105 Valerie Demands Dignity.mkv 508.58 MB
The Comeback 106 Valerie Saves the Show.mkv 471.61 MB
The Comeback 107 Valerie Gets a Very Special Episode.mkv 516.10 MB
The Comeback 108 Valerie Relaxes in Palm Springs.mkv 582.32 MB
The Comeback 109 Valerie Hangs with the Cool Kids.mkv 525.95 MB
The Comeback 110 Valerie Gets a Magazine Cover.mkv 475.54 MB
The Comeback 111 Valerie Stands Out on the Red Carpet.mkv 535.08 MB
The Comeback 112 Valerie Shines Under Stress.mkv 480.91 MB
The Comeback 113 Valerie Does Another Classic Leno.mkv 509.42 MB

Screenshot:

Sign up via clicking banner and a file link to creat a premium account.Then Get the access to protected links.

ExtMatrix Download Links

The Comeback 101 - Pilot.mkv

Click Here for downloading links The Comeback S01 DVD9 x264