External Links:

General
Complete name : The.Crazy.Ones.S01E01.Pilot.1080p.WEB-DL.DD5.1.H.264-NTb.mkv
Format : Matroska
Format version : Version 2
File size : 764 MiB
Duration : 20mn 1s
Overall bit rate : 5 338 Kbps

Video
ID : 1
Format : AVC
Format/Info : Advanced Video Codec
Format profile : High@L4.0
Format settings, CABAC : Yes
Format settings, ReFrames : 4 frames
Codec ID : V_MPEG4/ISO/AVC
Duration : 20mn 1s
Bit rate : 4 848 Kbps
Width : 1 912 pixels
Height : 1 072 pixels
Display aspect ratio : 16:9
Frame rate mode : Constant
Frame rate : 23.976 fps
Color space : YUV
Chroma subsampling : 4:2:0
Bit depth : 8 bits
Scan type : Progressive
Bits/(Pixel*Frame) : 0.099
Stream size : 694 MiB (91%)
Language : English
Default : Yes
Forced : No
Color primaries : BT.709
Transfer characteristics : BT.709
Matrix coefficients : BT.709

Audio
ID : 2
Format : AC-3
Format/Info : Audio Coding 3
Mode extension : CM (complete main)
Format settings, Endianness : Big
Codec ID : A_AC3
Duration : 20mn 1s
Bit rate mode : Constant
Bit rate : 384 Kbps
Channel(s) : 6 channels
Channel positions : Front: L C R, Side: L R, LFE
Sampling rate : 48.0 KHz
Bit depth : 16 bits
Compression mode : Lossy
Stream size : 55.0 MiB (7%)
Language : English
Default : Yes
Forced : No

Text
ID : 3
Format : UTF-8
Codec ID : S_TEXT/UTF8
Codec ID/Info : UTF-8 Plain Text
Title : CC
Language : English
Default : No
Forced : No

The.Crazy.Ones.S01.Season.1.Sneak.Peak.1080p.WEB-DL.AAC2.0.H.264.HKD.mkv 110.76 MB
Screenshot:

Sign up via clicking banner and a file link to creat a premium account.Then Get the access to protected links.

ExtMatrix Download Links

The.Crazy.Ones.S01.Season.1.Sneak.Peak.1080p.WEB-DL.AAC2.0.H.264.HKD.mkv
The.Crazy.Ones.S01E01.Pilot.1080p.WEB-DL.DD5.1.H.264-NTb.mkv
The.Crazy.Ones.S01E02.The.Spectacular.1080p.WEB-DL.DD5.1.H.264-NTb.mkv
The.Crazy.Ones.S01E03.Bad.Dad.1080p.WEB-DL.DD5.1.H.264-NTb.mkv
The.Crazy.Ones.S01E04.The.Breakfast.Burrito.Club.1080p.WEB-DL.DD5.1.H.264-NTb.mkv
The.Crazy.Ones.S01E05.She.s.So.European.1080p.WEB-DL.DD5.1.H.264-NTb.mkv
The.Crazy.Ones.S01E06.Hugging.the.Now.1080p.WEB-DL.DD5.1.H.264-NTb.mkv
The.Crazy.Ones.S01E07.Sydney.Australia.1080p.WEB-DL.DD5.1.H.264-NTb.mkv
The.Crazy.Ones.S01E08.The.Stan.Wood.Account.1080p.WEB-DL.DD5.1.H.264-NTb.mkv
the.crazy.ones.s01e09.720p.hdtv.x264-killers.mkv
The.Crazy.Ones.S01E10.1080p.WEB-DL.DD5.1.H.264.HKD.part1.rar
The.Crazy.Ones.S01E10.1080p.WEB-DL.DD5.1.H.264.HKD.part2.rar
The.Crazy.Ones.S01E11.The.Intern.1080p.WEB-DL.DD5.1.H.264-NTb.mkv
The.Crazy.Ones.S01E12.The.Face.of.a.Winner.1080p.WEB-DL.DD5.1.H.264-NTb.mkv
The.Crazy.Ones.S01E13.Outbreak.1080p.WEB-DL.DD5.1.H.264-NTb.mkv

Click Here for downloading links The Crazy Ones S01E09 1080p WEB-DL DD5 1 H 264 HKD