Series Info
# of Seasons: 2
Country: US
Air Day:
Air Time:
First Aired:
Rating:
Series Status: New Series
Runtime: 0 Minutes
Network:
Classification: Scripted
TVDB Rating: 0.0
External Links:

 The Following (2013– )

TV Series  –  Crime | Drama | Thriller
7.5

Your rating:

   -/10
Ratings: 7.5/10 from 206 users
Reviews: write review | 1 critic

 

A brilliant and charismatic, yet psychotic serial killer communicates with other active serial killers and activates a cult of believers following his every command.

 

Creator Kevin Williamson and actors Kevin Bacon and Shawn Ashmore share a behind-the-scenes look at the first
season of former FBI agent Ryan Hardy’s mission to track down a mastermind serial killer and his amplifying
cult of followers.

General
Complete name : The Following Revisited 720p HDTV DD5.1 x264.mkv
Format : Matroska
Format version : Version 4 / Version 2
File size : 883 MiB
Duration : 21mn 1s
Overall bit rate : 5 868 Kbps

Video
ID : 1
Format : AVC
Format/Info : Advanced Video Codec
Format profile : High@L4.1
Format settings, CABAC : Yes
Format settings, ReFrames : 9 frames
Codec ID : V_MPEG4/ISO/AVC
Duration : 21mn 1s
Bit rate : 5 303 Kbps
Width : 1 280 pixels
Height : 720 pixels
Display aspect ratio : 16:9
Frame rate mode : Constant
Frame rate : 23.976 fps
Color space : YUV
Chroma subsampling : 4:2:0
Bit depth : 8 bits
Scan type : Progressive
Bits/(Pixel*Frame) : 0.240
Stream size : 798 MiB (90%)
Writing library : x264 core 138 r2358 9e941d1
Encoding settings : cabac=1 / ref=9 / deblock=1:0:0 / analyse=0x3:0x113 / me=umh / subme=9 / psy=1 /

Audio
ID : 2
Format : AC-3
Format/Info : Audio Coding 3
Mode extension : CM (complete main)
Format settings, Endianness : Big
Codec ID : A_AC3
Duration : 21mn 1s
Bit rate mode : Constant
Bit rate : 448 Kbps
Channel(s) : 6 channels
Channel positions : Front: L C R, Side: L R, LFE
Sampling rate : 48.0 KHz
Bit depth : 16 bits
Compression mode : Lossy
Delay relative to video : 29ms
Stream size : 67.4 MiB (8%)
Language : English
Default : Yes
Forced : No

Text
ID : 3
Format : UTF-8
Codec ID : S_TEXT/UTF8
Codec ID/Info : UTF-8 Plain Text
Language : English
Default : Yes
Forced : No

Screenshot:

Sign up via clicking banner and a file link to creat a premium account.

ExtMatrix Download Links

The Following Revisited 720p HDTV DD5.1 x264.mkv