External Links:

General
Complete name : The.Goldbergs.2013.S01E01.1080p.WEB-DL.DD5.1.H.264.HKD.mkv
Format : Matroska
Format version : Version 4 / Version 2
File size : 854 MiB
Duration : 21mn 33s
Overall bit rate : 5 539 Kbps
Movie name : ripped by CrazyHDSource.com

Video
ID : 1
Format : AVC
Format/Info : Advanced Video Codec
Format profile : High@L4.0
Format settings, CABAC : Yes
Format settings, ReFrames : 4 frames
Codec ID : V_MPEG4/ISO/AVC
Duration : 21mn 33s
Bit rate : 5 044 Kbps
Width : 1 916 pixels
Height : 1 076 pixels
Display aspect ratio : 16:9
Frame rate mode : Constant
Frame rate : 23.976 fps
Color space : YUV
Chroma subsampling : 4:2:0
Bit depth : 8 bits
Scan type : Progressive
Bits/(Pixel*Frame) : 0.102
Stream size : 778 MiB (91%)
Title : ripped by CrazyHDSource.com
Language : English
Default : Yes
Forced : No
Color primaries : BT.709
Transfer characteristics : BT.709
Matrix coefficients : BT.709

Audio
ID : 2
Format : AC-3
Format/Info : Audio Coding 3
Mode extension : CM (complete main)
Format settings, Endianness : Big
Codec ID : A_AC3
Duration : 21mn 33s
Bit rate mode : Constant
Bit rate : 384 Kbps
Channel(s) : 6 channels
Channel positions : Front: L C R, Side: L R, LFE
Sampling rate : 48.0 KHz
Bit depth : 16 bits
Compression mode : Lossy
Stream size : 59.2 MiB (7%)
Language : English
Default : Yes
Forced : No

Text
ID : 3
Format : UTF-8
Codec ID : S_TEXT/UTF8
Codec ID/Info : UTF-8 Plain Text
Language : English
Default : No
Forced : No

Screenshot:

Sign up via clicking banner and a file link to creat a premium account.Then Get the access to protected links.

ExtMatrix Download Links

The.Goldbergs.2013.S01E01.1080p.WEB-DL.DD5.1.H.264.HKD.mkv
The.Goldbergs.2013.S01E02.1080p.WEB-DL.DD5.1.H.264-NTb.mkv
The.Goldbergs.2013.S01E13.720p.HDTV.x264-REMARKABLE.mkv

Click Here for downloading links The Goldbergs 2013 S01E03 P1080p WEB-DL DD5 1 H 264 HKD

Click Here for downloading links The Goldbergs 2013 S01E04 P1080p WEB-DL DD5 1 H 264 HKD

Click Here for downloading links The Goldbergs 2013 S01E05 P1080p WEB-DL DD5 1 H 264 HKD

Click Here for downloading links The Goldbergs 2013 S01E06 P1080p WEB-DL DD5 1 H 264 HKD

Click Here for downloading links The Goldbergs 2013 S01E07 P1080p WEB-DL DD5 1 H 264 HKD

Click Here for downloading links The Goldbergs 2013 S01E08 P1080p WEB-DL DD5 1 H 264 HKD

Click Here for downloading links The Goldbergs 2013 S01E09 P1080p WEB-DL DD5 1 H 264 HKD

Click Here for downloading links The Goldbergs 2013 S01E10 P1080p WEB-DL DD5 1 H 264 HKD

Click Here for downloading links The Goldbergs 2013 S01E11 P1080p WEB-DL DD5 1 H 264 HKD

Click Here for downloading links The Goldbergs 2013 S01E12 P1080p WEB-DL DD5 1 H 264 HKD

Click Here for downloading links The Goldbergs 2013 S01E13 P1080p WEB-DL DD5 1 H 264 HKD