Useful link:

MediaInfo:

MediaInfo:
General
Complete name : The.Hobbit.An.Unexpected.Journey.2012.Extended.Cut.1080p.WEB-DL.DD5.1.H.264-ELiTE.mkv
Format : Matroska
Format version : Version 4 / Version 2
File size : 5.99 GiB
Duration : 3h 2mn
Overall bit rate : 4 699 Kbps

Video
ID : 1
Format : AVC
Format/Info : Advanced Video Codec
Format profile : High@L4.0
Format settings, CABAC : Yes
Format settings, ReFrames : 5 frames
Codec ID : V_MPEG4/ISO/AVC
Duration : 3h 2mn
Bit rate : 4 222 Kbps
Width : 1 918 pixels
Height : 798 pixels
Display aspect ratio : 2.40:1
Frame rate mode : Constant
Frame rate : 23.976 fps
Color space : YUV
Chroma subsampling : 4:2:0
Bit depth : 8 bits
Scan type : Progressive
Bits/(Pixel*Frame) : 0.115
Stream size : 5.38 GiB (90%)
Title : ..:: TEAM ELiTE ::..
Language : English
Default : Yes
Forced : No
Color primaries : BT.709
Transfer characteristics : BT.709
Matrix coefficients : BT.709

Audio
ID : 2
Format : AC-3
Format/Info : Audio Coding 3
Mode extension : CM (complete main)
Format settings, Endianness : Big
Codec ID : A_AC3
Duration : 3h 2mn
Bit rate mode : Constant
Bit rate : 384 Kbps
Channel(s) : 6 channels
Channel positions : Front: L C R, Side: L R, LFE
Sampling rate : 48.0 KHz
Bit depth : 16 bits
Compression mode : Lossy
Stream size : 501 MiB (8%)
Title : ENGLiSH AUDiO AC3 6 chnls 384 kbps
Language : English
Default : Yes
Forced : No

Menu
00:00:00.000 : en:1. Prologue: The Fall of Erebor
00:10:12.000 : en:2. “In a Hole in the Ground There Lived a Hobbit”
00:14:08.000 : en:3. Very Old Friends
00:17:27.000 : en:4. Mr. Baggins
00:18:44.000 : en:5. An Unexpected Party
00:23:16.000 : en:6. “Blunt the Knives”
00:27:59.000 : en:7. A Map, A Key and A Contract
00:36:04.000 : en:8. “Misty Mountains”
00:41:16.000 : en:9. ” . . . The World Ahead”
00:46:30.000 : en:10. The Battle of Azanulbizar
00:53:02.000 : en:11. Radagast the Brown
00:58:05.000 : en:12. Trollshaws
00:59:55.000 : en:13. Roast Mutton
01:10:42.000 : en:14. A Troll-hoard
01:15:01.000 : en:15. The Hill of Sorcery
01:18:52.000 : en:16. Warg-scouts
01:24:56.000 : en:17. Rivendell
01:30:34.000 : en:18. A Short Rest
01:34:10.000 : en:19. Moon Runes
01:37:24.000 : en:20. The Defiler
01:39:03.000 : en:21. The Last Homely House
01:41:40.000 : en:22. The White Council
01:50:22.000 : en:23. “Why the Halfling?”
01:52:59.000 : en:24. Over Hill
01:59:03.000 : en:25. Under Hill
02:03:57.000 : en:26. The Great Goblin
02:09:51.000 : en:27. Riddles in the Dark
02:23:21.000 : en:28. Biter and Beater
02:25:19.000 : en:29. The Ring
02:26:31.000 : en:30. Escape from Goblin Town
02:30:52.000 : en:31. The Pity of Bilbo
02:32:59.000 : en:32. “Home is Behind . . . ”
02:35:52.000 : en:33. Out of the Frying Pan . . .
02:46:51.000 : en:34. A Good Omen
02:52:21.000 : en:35. Credits

The.Hobbit.An.Unexpected.Journey.2012.720p.BluRay.x264-SPARKS
Release.Date: 28.02.2013
Video…….: X264 4020Kbps
Frame.Rate..: 23.976
Resolution..: 1280×536
Audio…….: DTS
Language….: English
Length……: 2h 50m
Source……: Retail BluRay
Size……..: 6720MB
Subtitles…: English Spanish French Portuguese.

Screenshot:

Sign up via clicking banner and a file link to creat a premium account.

ExtMatrix Download Links

the.hobbit.an.unexpected.journey.2012.720p.bluray.x264-sparks.mkv
The.Hobbit.An.Unexpected.Journey.2012.Extended.Cut.1080p.WEB-DL.DD5.1.H.264-ELiTE.mkv