Useful link:

IMDB

TVRAGE

TVDB

MediaInfo:
General
Complete name : The.Last.Ship.2014.S01E01.1080p.WEB-DL.DD5.1.H.264.HKD.mkv
Format : Matroska
Format version : Version 4 / Version 2
File size : 3.33 GiB
Duration : 1h 27mn
Overall bit rate : 5 421 Kbps
Movie name : ripped by CrazyHDSource.com

Video
ID : 1
Format : AVC
Format/Info : Advanced Video Codec
Format profile : High@L4.0
Format settings, CABAC : Yes
Format settings, ReFrames : 4 frames
Codec ID : V_MPEG4/ISO/AVC
Duration : 1h 27mn
Bit rate : 4 930 Kbps
Width : 1 920 pixels
Height : 1 080 pixels
Display aspect ratio : 16:9
Frame rate mode : Constant
Frame rate : 23.976 fps
Color space : YUV
Chroma subsampling : 4:2:0
Bit depth : 8 bits
Scan type : Progressive
Bits/(Pixel*Frame) : 0.099
Stream size : 3.02 GiB (91%)
Title : ripped by CrazyHDSource.com
Language : English
Default : Yes
Forced : No
Color primaries : BT.709
Transfer characteristics : BT.709
Matrix coefficients : BT.709

Audio
ID : 2
Format : AC-3
Format/Info : Audio Coding 3
Mode extension : CM (complete main)
Format settings, Endianness : Big
Codec ID : A_AC3
Duration : 1h 27mn
Bit rate mode : Constant
Bit rate : 384 Kbps
Channel(s) : 6 channels
Channel positions : Front: L C R, Side: L R, LFE
Sampling rate : 48.0 KHz
Bit depth : 16 bits
Compression mode : Lossy
Stream size : 241 MiB (7%)
Language : English
Default : Yes
Forced : No

Text
ID : 3
Format : UTF-8
Codec ID : S_TEXT/UTF8
Codec ID/Info : UTF-8 Plain Text
Language : English
Default : No
Forced : No

Screenshot:

Sign up via clicking banner and a file link to creat a premium account.Then Get the access to protected links.

ExtMatrix Download Links

The Last Ship S01 103 Prequel 2_ It May Pre-Date Human.mkv
The Last Ship S01 102 Prequel 1_ I Am Dr Rachel Scott.mkv
The Last Ship S01 101 Overview (1080p HD).mkv
The Last Ship 2014 S01 111.Prequel.6_.A.Proper.Goodbye.(108.mkv
The Last Ship 2014 S01 110.Prequel.5_.Avoid.Populated.Areas.mkv
The Last Ship 2014 S01 109.Behind.the.Character_.Mike.Slatt.mkv
The Last Ship 2014 S01 108.Behind.the.Character_.Rachel.Sco.mkv
The Last Ship 2014 S01 107.Behind.the.Character_.Tom.Chandl.mkv
The Last Ship 2014 S01 106.The.Making.of._The.Last.Ship_.(1.mkv
The Last Ship 2014 S01 112.Sneak.Peek.(1080p.HD).mkv
The Last Ship 2014 S01 105.Prequel.4_.The.Clock.Is.Ticking.mkv
The Last Ship 2014 S01 104.Prequel.3_.Can.You.Still.Hear.Me.mkv
The.Last.Ship.S01E01.1080p.WEB-DL.DD5.1.H.264-pcsyndicate.mkv

Click Here for downloading links The Last Ship 2014 S01E02 1080p WEB-DL DD5 1 H 264 HKD

Click Here for downloading links The Last Ship 2014 S01E03 1080p WEB-DL DD5 1 H 264 HKD

Click Here for downloading links The Last Ship 2014 S01E04 1080p WEB-DL DD5 1 H 264 HKD

Click Here for downloading links The Last Ship 2014 S01E05 1080p WEB-DL DD5 1 H 264 HKD

Click Here for downloading links The Last Ship 2014 S01E06 1080p WEB-DL DD5 1 H 264 HKD

Click Here for downloading links The Last Ship 2014 S01E07 1080p WEB-DL DD5 1 H 264 HKD

Click Here for downloading links The Last Ship 2014 S01E08 1080p WEB-DL DD5 1 H 264 HKD

Click Here for downloading links The Last Ship 2014 S01E09 1080p WEB-DL DD5 1 H 264 HKD