External Links:

General
Complete name : The.League.S05E01.1080p.WEB-DL.DD5.1.H.264.HKD.mkv
Format : Matroska
Format version : Version 4 / Version 2
File size : 957 MiB
Duration : 24mn 26s
Overall bit rate : 5 474 Kbps
Movie name : ripped by CrazyHDSource.com

Video
ID : 1
Format : AVC
Format/Info : Advanced Video Codec
Format profile : High@L4.0
Format settings, CABAC : Yes
Format settings, ReFrames : 4 frames
Codec ID : V_MPEG4/ISO/AVC
Duration : 24mn 26s
Bit rate : 4 981 Kbps
Width : 1 912 pixels
Height : 1 072 pixels
Display aspect ratio : 16:9
Frame rate mode : Constant
Frame rate : 23.976 fps
Color space : YUV
Chroma subsampling : 4:2:0
Bit depth : 8 bits
Scan type : Progressive
Bits/(Pixel*Frame) : 0.101
Stream size : 871 MiB (91%)
Title : ripped by CrazyHDSource.com
Language : English
Default : Yes
Forced : No
Color primaries : BT.709
Transfer characteristics : BT.709
Matrix coefficients : BT.709

Audio
ID : 2
Format : AC-3
Format/Info : Audio Coding 3
Mode extension : CM (complete main)
Format settings, Endianness : Big
Codec ID : A_AC3
Duration : 24mn 26s
Bit rate mode : Constant
Bit rate : 384 Kbps
Channel(s) : 6 channels
Channel positions : Front: L C R, Side: L R, LFE
Sampling rate : 48.0 KHz
Bit depth : 16 bits
Compression mode : Lossy
Stream size : 67.1 MiB (7%)
Language : English
Default : Yes
Forced : No

Text
ID : 3
Format : UTF-8
Codec ID : S_TEXT/UTF8
Codec ID/Info : UTF-8 Plain Text
Language : English
Default : No
Forced : No

The.League.S06E01.720p.WEB-DL.DD5.1.H.264-pcsyndicate.mkv 800.82 MB
The.League.S06E02.720p.WEB-DL.DD5.1.H.264-pcsyndicate.mkv 671.27 MB
The.League.S06E03.720p.WEB-DL.DD5.1.H.264-pcsyndicate.mkv 714.28 MB
The.League.S06E04.720p.WEB-DL.DD5.1.H.264-pcsyndicate.mkv 840.88 MB
The.League.S06E05.720p.WEB-DL.DD5.1.H.264-pcsyndicate.mkv 807.81 MB
The.League.S06E06.720p.WEB-DL.DD5.1.H.264-pcsyndicate.mkv 721.08 MB
The.League.S06E07.720p.WEB-DL.DD5.1.H.264-pcsyndicate.mkv 718.00 MB
The.League.S06E08.720p.WEB-DL.DD5.1.H.264-pcsyndicate.mkv 802.40 MB
The.League.S06E09.720p.WEB-DL.DD5.1.H.264-pcsyndicate.mkv 784.64 MB
The.League.S06E10.720p.WEB-DL.DD5.1.H.264-pcsyndicate.mkv 766.01 MB
The.League.S06E11.720p.WEB-DL.DD5.1.H.264-pcsyndicate.mkv 805.43 MB
The.League.S06E12.720p.WEB-DL.DD5.1.H.264-pcsyndicate.mkv 738.06 MB
The.League.S06E13.720p.WEB-DL.DD5.1.H.264-pcsyndicate.mkv 857.88 MB

Screenshot:

Sign up via clicking banner and a file link to creat a premium account.Then Get the access to protected links.

ExtMatrix Download Links

The.League.S06E01.720p.WEB-DL.DD5.1.H.264-pcsyndicate.mkv
The.League.S06E02.720p.WEB-DL.DD5.1.H.264-pcsyndicate.mkv
The.League.S06E03.720p.WEB-DL.DD5.1.H.264-pcsyndicate.mkv
The.League.S06E04.720p.WEB-DL.DD5.1.H.264-pcsyndicate.mkv
The.League.S06E05.720p.WEB-DL.DD5.1.H.264-pcsyndicate.mkv
The.League.S06E07.720p.WEB-DL.DD5.1.H.264-pcsyndicate.mkv
The.League.S06E08.720p.WEB-DL.DD5.1.H.264-pcsyndicate.mkv
The.League.S06E09.720p.WEB-DL.DD5.1.H.264-pcsyndicate.mkv
The.League.S06E10.720p.WEB-DL.DD5.1.H.264-pcsyndicate.mkv
The.League.S06E11.720p.WEB-DL.DD5.1.H.264-pcsyndicate.mkv