Useful link:

MediaInfo:
General
Complete name : The.Lego.Movie.2014.1080p.WEB-DL.H264-RARBG.mkv
Format : Matroska
Format version : Version 4 / Version 2
File size : 3.20 GiB
Duration : 1h 40mn
Overall bit rate : 4 558 Kbps

Video
ID : 1
Format : AVC
Format/Info : Advanced Video Codec
Format profile : High@L4.0
Format settings, CABAC : Yes
Format settings, ReFrames : 5 frames
Codec ID : V_MPEG4/ISO/AVC
Duration : 1h 40mn
Bit rate : 4 084 Kbps
Width : 1 916 pixels
Height : 798 pixels
Display aspect ratio : 2.40:1
Frame rate mode : Constant
Frame rate : 23.976 fps
Color space : YUV
Chroma subsampling : 4:2:0
Bit depth : 8 bits
Scan type : Progressive
Bits/(Pixel*Frame) : 0.111
Stream size : 2.87 GiB (90%)
Language : English
Default : Yes
Forced : No
Color primaries : BT.709
Transfer characteristics : BT.709
Matrix coefficients : BT.709

Audio
ID : 2
Format : AC-3
Format/Info : Audio Coding 3
Mode extension : CM (complete main)
Format settings, Endianness : Big
Codec ID : A_AC3
Duration : 1h 40mn
Bit rate mode : Constant
Bit rate : 384 Kbps
Channel(s) : 6 channels
Channel positions : Front: L C R, Side: L R, LFE
Sampling rate : 48.0 KHz
Bit depth : 16 bits
Compression mode : Lossy
Stream size : 276 MiB (8%)
Language : English
Default : Yes
Forced : No

Menu
00:00:00.000 : en:1.
00:09:41.000 : en:2.
00:18:15.000 : en:3.
00:29:46.000 : en:4.
00:38:43.000 : en:5.
00:48:40.000 : en:6.
00:57:43.000 : en:7.
01:05:59.000 : en:8.
01:16:17.000 : en:9.
01:25:49.000 : en:10.
01:32:49.000 : en:11.

Screenshot:

Sign up via clicking banner and a file link to creat a premium account.Then Get the access to protected links.

ExtMatrix Download Links

The.Lego.Movie.2014.1080p.WEB-DL.H264-RARBG.mkv