External Links:

General
Complete name : The.Mentalist.S06E01.1080p.WEB-DL.DD5.1.H.264.HKD.mkv
Format : Matroska
Format version : Version 4 / Version 2
File size : 1.61 GiB
Duration : 41mn 45s
Overall bit rate : 5 524 Kbps
Movie name : ripped by CrazyHDSource.com

Video
ID : 1
Format : AVC
Format/Info : Advanced Video Codec
Format profile : High@L4.0
Format settings, CABAC : Yes
Format settings, ReFrames : 4 frames
Codec ID : V_MPEG4/ISO/AVC
Duration : 41mn 45s
Bit rate : 5 030 Kbps
Width : 1 920 pixels
Height : 1 080 pixels
Display aspect ratio : 16:9
Frame rate mode : Constant
Frame rate : 23.976 fps
Color space : YUV
Chroma subsampling : 4:2:0
Bit depth : 8 bits
Scan type : Progressive
Bits/(Pixel*Frame) : 0.101
Stream size : 1.47 GiB (91%)
Title : ripped by CrazyHDSource.com
Language : English
Default : Yes
Forced : No
Color primaries : BT.709
Transfer characteristics : BT.709
Matrix coefficients : BT.709

Audio
ID : 2
Format : AC-3
Format/Info : Audio Coding 3
Mode extension : CM (complete main)
Format settings, Endianness : Big
Codec ID : A_AC3
Duration : 41mn 45s
Bit rate mode : Constant
Bit rate : 384 Kbps
Channel(s) : 6 channels
Channel positions : Front: L C R, Side: L R, LFE
Sampling rate : 48.0 KHz
Bit depth : 16 bits
Compression mode : Lossy
Stream size : 115 MiB (7%)
Language : English
Default : Yes
Forced : No

Text
ID : 3
Format : UTF-8
Codec ID : S_TEXT/UTF8
Codec ID/Info : UTF-8 Plain Text
Language : English
Default : No
Forced : No

Screenshot:

Sign up via clicking banner and a file link to creat a premium account.Then Get the access to protected links.

ExtMatrix Download Links

The.Mentalist.S06E01.The.Desert.Rose.720p.WEB-DL.DD5.1.H.264-ECI.mkv
The.Mentalist.S06E02.Black-Winged.Redbird.720p.WEB-DL.DD5.1.H.264-ECI.mkv
The.Mentalist.S06E04.Red.Listed.720p.WEB-DL.DD5.1.H.264-ECI.mkv
The.Mentalist.S06E05.The.Red.Tattoo.720p.WEB-DL.DD5.1.H.264-ECI.mkv
The.Mentalist.S06E06.Fire.And.Brimstone.720p.WEB-DL.DD5.1.H.264-ECI.mkv
The.Mentalist.S06E08.Red.John.720p.WEB-DL.DD5.1.H.264-ECI.mkv
The.Mentalist.S06E09.My.Blue.Heaven.720p.WEB-DL.DD5.1.H.264-ECI.mkv
The.Mentalist.S06E10.Green.Thumb.720p.WEB-DL.DD5.1.H.264-ECI.mkv
The.Mentalist.S06E11.White.Lies.720p.WEB-DL.DD5.1.H.264-ECI.mkv
The.Mentalist.S06E12.Golden.Hammer.720p.WEB-DL.DD5.1.H.264-ECI.mkv
Click Here for downloading links The Mentalist S06E01 1080p WEB-DL DD5 1 H 264 HKD

Click Here for downloading links The Mentalist S06E02 1080p WEB-DL DD5 1 H 264 HKD

Click Here for downloading links The Mentalist S06E03 1080p WEB-DL DD5 1 H 264 HKD

Click Here for downloading links The Mentalist S06E04 1080p WEB-DL DD5 1 H 264 HKD

Click Here for downloading links The Mentalist S06E05 1080p WEB-DL DD5 1 H 264 HKD

Click Here for downloading links The Mentalist S06E06 1080p WEB-DL DD5 1 H 264 HKD

Click Here for downloading links The Mentalist S06E07 1080p WEB-DL DD5 1 H 264 HKD

Click Here for downloading links The Mentalist S06E08 1080p WEB-DL DD5 1 H 264 HKD

Click Here for downloading links The Mentalist S06E09 1080p WEB-DL DD5 1 H 264 HKD

Click Here for downloading links The Mentalist S06E10 1080p WEB-DL DD5 1 H 264 HKD

Click Here for downloading links The Mentalist S06E11 1080p WEB-DL DD5 1 H 264 HKD

Click Here for downloading links The Mentalist S06E12 1080p WEB-DL DD5 1 H 264 HKD