External Links:

General
Complete name : The.Middle.S05E01.The.Drop.Off.1080p.WEB-DL.DD5.1.H.264-BS.mkv
Format : Matroska
Format version : Version 2
File size : 867 MiB
Duration : 21mn 33s
Overall bit rate : 5 624 Kbps

Video
ID : 1
Format : AVC
Format/Info : Advanced Video Codec
Format profile : High@L4.0
Format settings, CABAC : Yes
Format settings, ReFrames : 4 frames
Codec ID : V_MPEG4/ISO/AVC
Duration : 21mn 33s
Bit rate : 5 128 Kbps
Width : 1 916 pixels
Height : 1 080 pixels
Display aspect ratio : 16:9
Frame rate mode : Constant
Frame rate : 23.976 fps
Color space : YUV
Chroma subsampling : 4:2:0
Bit depth : 8 bits
Scan type : Progressive
Bits/(Pixel*Frame) : 0.103
Stream size : 791 MiB (91%)
Language : English
Default : Yes
Forced : No
Color primaries : BT.709
Transfer characteristics : BT.709
Matrix coefficients : BT.709

Audio
ID : 2
Format : AC-3
Format/Info : Audio Coding 3
Mode extension : CM (complete main)
Format settings, Endianness : Big
Codec ID : A_AC3
Duration : 21mn 33s
Bit rate mode : Constant
Bit rate : 384 Kbps
Channel(s) : 6 channels
Channel positions : Front: L C R, Side: L R, LFE
Sampling rate : 48.0 KHz
Bit depth : 16 bits
Compression mode : Lossy
Stream size : 59.2 MiB (7%)
Language : English
Default : Yes
Forced : No

Text
ID : 3
Format : UTF-8
Codec ID : S_TEXT/UTF8
Codec ID/Info : UTF-8 Plain Text
Title : CC
Language : English
Default : No
Forced : No

The.Middle.S05E01.The.Drop.Off.1080p.WEB DL.DD5.1.H.264 BS.mkv 867.28 MB
The.Middle.S05E02.Change.is.in.the.Air.1080p.WEB DL.DD5.1.H.264 BS.mkv 826.39 MB
The.Middle.S05E03.The.Potato.1080p.WEB DL.DD5.1.H.264 BS.mkv 882.81 MB
The.Middle.S05E04.The.100th.1080p.WEB DL.DD5.1.H.264 BS.mkv 834.51 MB
The.Middle.S05E05.Halloween.IV.The.Ghost.Story.1080p.WEB DL.DD5.1.H.264 BS.mkv 874.17 MB
The.Middle.S05E06.The.Jump.1080p.WEB DL.DD5.1.H.264 BS.mkv 839.60 MB
The.Middle.S05E07.Thanksgiving.V.1080p.WEB DL.DD5.1.H.264 BS.mkv 852.86 MB
The.Middle.S05E08.The.Kiss.1080p.WEB DL.DD5.1.H.264 BS.mkv 818.97 MB
The.Middle.S05E09.The.Christmas.Tree.1080p.WEB DL.DD5.1.H.264 BS.mkv 855.01 MB
The.Middle.S05E10.Sleepless.In.Orson.1080p.WEB DL.DD5.1.H.264 BS.mkv 856.46 MB
The.Middle.S05E11.War.of. the.Hecks.1080p.WEB DL.DD5.1.H.264 BS.mkv 850.74 MB
The.Middle.S05E12.The.Carpool.1080p.WEB DL.DD5.1.H.264 BS.mkv 863.54 MB
The.Middle.S05E13.Hungry.Games.1080p.WEB DL.DD5.1.H.264 BS.mkv 848.45 MB
The.Middle.S05E14.The.Award.1080p.WEB DL.DD5.1.H.264 BS.mkv 852.03 MB
The.Middle.S05E15.Vacation.Days.1080p.WEB DL.DD5.1.H.264 BS.mkv 851.31 MB
The.Middle.S05E16.Stormy.Moon.1080p.WEB DL.DD5.1.H.264 BS.mkv 857.39 MB
The.Middle.S05E17.The.Walk.1080p.WEB DL.DD5.1.H.264 BS.mkv 861.24 MB
The.Middle.S05E18.The.Smell.1080p.WEB DL.DD5.1.H.264 BS.mkv 863.12 MB
The.Middle.S05E19.The.Wind.Chimes.1080p.WEB DL.DD5.1.H.264 BS.mkv 858.79 MB
The.Middle.S05E20.The.Optimist.1080p.WEB DL.DD5.1.H.264 BS.mkv 860.07 MB
The.Middle.S05E21.Office.Hours.1080p.WEB DL.DD5.1.H.264 BS.mkv 862.72 MB
The.Middle.S05E22.Hecks.on.a.Hard.Body.1080p.WEB DL.DD5.1.H.264 BS.mkv 851.60 MB
The.Middle.S05E23.Orlando.1080p.WEB DL.DD5.1.H.264 BS.mkv 842.51 MB
The.Middle.S05E24.The.Wonderful.World.of.Hecks.1080p.WEB DL.DD5.1.H.264 BS.mkv 855.26 MB

Screenshot:

Sign up via clicking banner and a file link to creat a premium account.Then Get the access to protected links.

ExtMatrix Download Links

The.Middle.S05E01.The.Drop.Off.1080p.WEB-DL.DD5.1.H.264-BS.mkv
The.Middle.S05E02.Change.is.in.the.Air.1080p.WEB-DL.DD5.1.H.264-BS.mkv
The.Middle.S05E03.The.Potato.1080p.WEB-DL.DD5.1.H.264-BS.mkv
The.Middle.S05E04.The.100th.1080p.WEB-DL.DD5.1.H.264-BS.mkv
The.Middle.S05E05.Halloween.IV.The.Ghost.Story.1080p.WEB-DL.DD5.1.H.264-BS.mkv
The.Middle.S05E06.The.Jump.1080p.WEB-DL.DD5.1.H.264-BS.mkv
The.Middle.S05E07.Thanksgiving.V.1080p.WEB-DL.DD5.1.H.264-BS.mkv
The.Middle.S05E08.The.Kiss.1080p.WEB-DL.DD5.1.H.264-BS.mkv
The.Middle.S05E10.Sleepless.In.Orson.1080p.WEB-DL.DD5.1.H.264-BS.mkv
The.Middle.S05E11.War.of. the.Hecks.1080p.WEB-DL.DD5.1.H.264-BS.mkv
The.Middle.S05E12.The.Carpool.1080p.WEB-DL.DD5.1.H.264-BS.mkv
The.Middle.S05E13.Hungry.Games.1080p.WEB-DL.DD5.1.H.264-BS.mkv
The.Middle.S05E14.The.Award.1080p.WEB-DL.DD5.1.H.264-BS.mkv
The.Middle.S05E16.Stormy.Moon.1080p.WEB-DL.DD5.1.H.264-BS.mkv
The.Middle.S05E17.The.Walk.1080p.WEB-DL.DD5.1.H.264-BS.mkv
The.Middle.S05E19.The.Wind.Chimes.1080p.WEB-DL.DD5.1.H.264-BS.mkv
The.Middle.S05E20.The.Optimist.1080p.WEB-DL.DD5.1.H.264-BS.mkv
The.Middle.S05E21.Office.Hours.1080p.WEB-DL.DD5.1.H.264-BS.mkv
The.Middle.S05E22.Hecks.on.a.Hard.Body.1080p.WEB-DL.DD5.1.H.264-BS.mkv
The.Middle.S05E23.Orlando.1080p.WEB-DL.DD5.1.H.264-BS.mkv
The.Middle.S05E24.The.Wonderful.World.of.Hecks.1080p.WEB-DL.DD5.1.H.264-BS.mkv
The.Middle.S05E09.The.Christmas.Tree.1080p.WEB-DL.DD5.1.H.264-BS.mkv
The.Middle.S05E15.Vacation.Days.1080p.WEB-DL.DD5.1.H.264-BS.mkv
The.Middle.S05E18.The.Smell.1080p.WEB-DL.DD5.1.H.264-BS.mkv