External Links:

General
Complete name : The.Mindy.Project.S02E01.1080p.WEB-DL.DD5.1.H.264.HKD.mkv
Format : Matroska
Format version : Version 4 / Version 2
File size : 814 MiB
Duration : 21mn 39s
Overall bit rate : 5 256 Kbps
Movie name : ripped by CrazyHDSource.com

Video
ID : 1
Format : AVC
Format/Info : Advanced Video Codec
Format profile : High@L4.0
Format settings, CABAC : Yes
Format settings, ReFrames : 4 frames
Codec ID : V_MPEG4/ISO/AVC
Duration : 21mn 39s
Bit rate : 4 768 Kbps
Width : 1 920 pixels
Height : 1 080 pixels
Display aspect ratio : 16:9
Frame rate mode : Constant
Frame rate : 23.976 fps
Color space : YUV
Chroma subsampling : 4:2:0
Bit depth : 8 bits
Scan type : Progressive
Bits/(Pixel*Frame) : 0.096
Stream size : 738 MiB (91%)
Title : ripped by CrazyHDSource.com
Language : English
Default : Yes
Forced : No
Color primaries : BT.709
Transfer characteristics : BT.709
Matrix coefficients : BT.709

Audio
ID : 2
Format : AC-3
Format/Info : Audio Coding 3
Mode extension : CM (complete main)
Format settings, Endianness : Big
Codec ID : A_AC3
Duration : 21mn 39s
Bit rate mode : Constant
Bit rate : 384 Kbps
Channel(s) : 6 channels
Channel positions : Front: L C R, Side: L R, LFE
Sampling rate : 48.0 KHz
Bit depth : 16 bits
Compression mode : Lossy
Stream size : 59.5 MiB (7%)
Language : English
Default : Yes
Forced : No

Text
ID : 3
Format : UTF-8
Codec ID : S_TEXT/UTF8
Codec ID/Info : UTF-8 Plain Text
Language : English
Default : No
Forced : No

Screenshot:

Sign up via clicking banner and a file link to creat a premium account.Then Get the access to protected links.

ExtMatrix Download Links

The.Mindy.Project.S02E01.1080p.WEB-DL.DD5.1.H.264.HKD.part2.rar
The.Mindy.Project.S02E01.1080p.WEB-DL.DD5.1.H.264.HKD.part1.rar
The.Mindy.Project.S02E03.720p.HDTV.X264-DIMENSION.mkv
The.Mindy.Project.S02E05.720p.HDTV.X264-DIMENSION.mkv
The.Mindy.Project.S02E06.720p.HDTV.X264-DIMENSION.mkv
The.Mindy.Project.S02E08.720p.HDTV.X264-DIMENSION.mkv
The.Mindy.Project.S02E10.720p.HDTV.X264-DIMENSION.mkv
The.Mindy.Project.S02E11.720p.HDTV.X264-DIMENSION.mkv
The.Mindy.Project.S02E12.720p.HDTV.x264-REMARKABLE.mkv

Click Here for downloading links The Mindy Project S02E02 1080p WEB-DL DD5.1 H.264 HKD

Click Here for downloading links The Mindy Project S02E03 1080p WEB-DL DD5.1 H.264 HKD

Click Here for downloading links The Mindy Project S02E04 1080p WEB-DL DD5.1 H.264 HKD

Click Here for downloading links The Mindy Project S02E05 1080p WEB-DL DD5.1 H.264 HKD

Click Here for downloading links The Mindy Project S02E06 1080p WEB-DL DD5.1 H.264 HKD

Click Here for downloading links The Mindy Project S02E07 1080p WEB-DL DD5.1 H.264 HKD

Click Here for downloading links The Mindy Project S02E08 1080p WEB-DL DD5.1 H.264 HKD

Click Here for downloading links The Mindy Project S02E09 1080p WEB-DL DD5.1 H.264 HKD

Click Here for downloading links The Mindy Project S02E10 1080p WEB-DL DD5.1 H.264 HKD

Click Here for downloading links The Mindy Project S02E11 1080p WEB-DL DD5.1 H.264 HKD