The Motel Life 2012 1080p WEB DL DD5.1 H.264 HKD Movie 1080p WEB DL

Useful link:

The Motel Life 2012 1080p WEB DL DD5.1 H.264 HKD Movie 1080p WEB DL

The Motel Life 2012 1080p WEB DL DD5.1 H.264 HKD Movie 1080p WEB DL

The Motel Life 2012 1080p WEB DL DD5.1 H.264 HKD Movie 1080p WEB DL

MediaInfo:
General
Complete name : The.Motel.Life.1080p.WEB-DL.DD5.1.H.264.HKD.mkv
Format : Matroska
Format version : Version 4 / Version 2
File size : 2.81 GiB
Duration : 1h 25mn
Overall bit rate : 4 716 Kbps
Movie name : ripped by CrazyHDSource.com

Video
ID : 1
Format : AVC
Format/Info : Advanced Video Codec
Format profile : High@L4.0
Format settings, CABAC : Yes
Format settings, ReFrames : 5 frames
Codec ID : V_MPEG4/ISO/AVC
Duration : 1h 25mn
Bit rate : 4 238 Kbps
Width : 1 920 pixels
Height : 792 pixels
Display aspect ratio : 2.40:1
Frame rate mode : Constant
Frame rate : 23.976 fps
Color space : YUV
Chroma subsampling : 4:2:0
Bit depth : 8 bits
Scan type : Progressive
Bits/(Pixel*Frame) : 0.116
Stream size : 2.52 GiB (90%)
Title : ripped by CrazyHDSource.com
Language : English
Default : Yes
Forced : No
Color primaries : BT.709
Transfer characteristics : BT.709
Matrix coefficients : BT.709

Audio
ID : 2
Format : AC-3
Format/Info : Audio Coding 3
Mode extension : CM (complete main)
Format settings, Endianness : Big
Codec ID : A_AC3
Duration : 1h 25mn
Bit rate mode : Constant
Bit rate : 384 Kbps
Channel(s) : 6 channels
Channel positions : Front: L C R, Side: L R, LFE
Sampling rate : 48.0 KHz
Bit depth : 16 bits
Compression mode : Lossy
Stream size : 234 MiB (8%)
Language : English
Default : Yes
Forced : No

Text
ID : 3
Format : UTF-8
Codec ID : S_TEXT/UTF8
Codec ID/Info : UTF-8 Plain Text
Language : English
Default : No
Forced : No

Menu
00:00:00.000 : en:Chapter 1
00:09:44.000 : en:Chapter 2
00:19:22.000 : en:Chapter 3
00:29:19.000 : en:Chapter 4
00:40:12.000 : en:Chapter 5
00:51:30.000 : en:Chapter 6
01:02:33.000 : en:Chapter 7
01:14:53.000 : en:Chapter 8
01:20:10.000 : en:Chapter 9

Screenshot:
The Motel Life 2012 1080p WEB DL DD5.1 H.264 HKD Movie 1080p WEB DL

Sign up via clicking banner and a file link to creat a premium account.Then Get the access to protected links.
The Motel Life 2012 1080p WEB DL DD5.1 H.264 HKD Movie 1080p WEB DL
ExtMatrix Download Links

Click Here for downloading links The Motel Life 2012 1080p WEB-DL DD5.1 H.264 HKD