Series Info

# of Seasons: 2
Country: US
Air Day: Wednesday
Air Time: 8:30 PM
First Aired: 2012-09-26
Rating:
Series Status: New Series
Runtime: 30 Minutes
Network: ABC
Classification: Scripted
TVDB Rating: 0.0
External Links:

The Neighbors (2012)

TV Series – tvComedy
3.3

Your rating:

-/10
Ratings: 3.3/10 from 218 users
Reviews: 1 user

 

A New Jersey family moves to an affluent gated community composed entirely of extraterrestrials.
General
Complete name : The.Neighbors.S02E01.1080p.WEB-DL.DD5.1.H.264.HKD.mkv
Format : Matroska
Format version : Version 4 / Version 2
File size : 821 MiB
Duration : 21mn 27s
Overall bit rate : 5 350 Kbps
Movie name : ripped by CrazyHDSource.com

Video
ID : 1
Format : AVC
Format/Info : Advanced Video Codec
Format profile : High@L4.0
Format settings, CABAC : Yes
Format settings, ReFrames : 4 frames
Codec ID : V_MPEG4/ISO/AVC
Duration : 21mn 27s
Bit rate : 4 859 Kbps
Width : 1 920 pixels
Height : 1 080 pixels
Display aspect ratio : 16:9
Frame rate mode : Constant
Frame rate : 23.976 fps
Color space : YUV
Chroma subsampling : 4:2:0
Bit depth : 8 bits
Scan type : Progressive
Bits/(Pixel*Frame) : 0.098
Stream size : 746 MiB (91%)
Title : ripped by CrazyHDSource.com
Language : English
Default : Yes
Forced : No
Color primaries : BT.709
Transfer characteristics : BT.709
Matrix coefficients : BT.709

Audio
ID : 2
Format : AC-3
Format/Info : Audio Coding 3
Mode extension : CM (complete main)
Format settings, Endianness : Big
Codec ID : A_AC3
Duration : 21mn 27s
Bit rate mode : Constant
Bit rate : 384 Kbps
Channel(s) : 6 channels
Channel positions : Front: L C R, Side: L R, LFE
Sampling rate : 48.0 KHz
Bit depth : 16 bits
Compression mode : Lossy
Stream size : 58.9 MiB (7%)
Language : English
Default : Yes
Forced : No

Text
ID : 3
Format : UTF-8
Codec ID : S_TEXT/UTF8
Codec ID/Info : UTF-8 Plain Text
Language : English
Default : No
Forced : No

Screenshot:

Sign up via clicking banner and a file link to creat a premium account.Then Get the access to protected links.

ExtMatrix Download Links

The.Neighbors.S02E02.September.Fools.1080p.WEB-DL.DD5.1.H.264-BS.mkv
The.Neighbors.S02E03.Neighbours.1080p.WEB-DL.DD5.1.H.264-BS.mkv
The.Neighbors.S02E04.The.One.With.Interspecies.Friends.1080p.WEB-DL.DD5.1.H.264-BS.mkv
The.Neighbors.S02E05.Challoweenukah.1080p.WEB-DL.DD5.1.H.264-BS.mkv
The.Neighbors.S02E06.Any.Friggin.Sunday.1080p.WEB-DL.DD5.1.H.264-BS.mkv
The.Neighbors.S02E07.We.Jumped.the.Shark.1080p.WEB-DL.DD5.1.H.264-BS.mkv
The.Neighbors.S02E08.Good.Debbie.Hunting.1080p.WEB-DL.DD5.1.H.264-BS.mkv
The.Neighbors.S02E09.Thanksgiving.is.no.Schmuck.Bait.1080p.WEB-DL.DD5.1.H.264-BS.mkv
The.Neighbors.S02E10.Supreme.Like.Me.1080p.WEB-DL.DD5.1.H.264-BS.mkv
The.Neighbors.S02E11.A.Christmas.Story.1080p.WEB-DL.DD5.1.H.264-BS.mkv
The.Neighbors.2012.S02E12.720p.HDTV.X264-DIMENSION.mkv

Click Here for downloading links The Neighbors S02E01 1080p WEB-DL DD5 1 H 264 HKD