External Links:

General
Complete name : The Office S09E18 720p BluRay DTS x264-CtrlHD.mkv
Format : Matroska
Format version : Version 4 / Version 2
File size : 1.16 GiB
Duration : 22mn 3s
Overall bit rate : 7 511 Kbps

Video
ID : 1
Format : AVC
Format/Info : Advanced Video Codec
Format profile : High@L4.1
Format settings, CABAC : Yes
Format settings, ReFrames : 8 frames
Codec ID : V_MPEG4/ISO/AVC
Duration : 22mn 3s
Bit rate : 5 853 Kbps
Width : 1 280 pixels
Height : 720 pixels
Display aspect ratio : 16:9
Frame rate mode : Constant
Frame rate : 23.976 fps
Color space : YUV
Chroma subsampling : 4:2:0
Bit depth : 8 bits
Scan type : Progressive
Bits/(Pixel*Frame) : 0.265
Stream size : 923 MiB (78%)
Writing library : x264 core 142 r2389kMod 956c8d8
Encoding settings : cabac=1 / ref=8 / deblock=1:-3:-2 / analyse=0x3:0x133 / me=esa / subme=10 /

Audio
ID : 2
Format : DTS
Format/Info : Digital Theater Systems
Mode : 16
Format settings, Endianness : Big
Codec ID : A_DTS
Duration : 22mn 3s
Bit rate mode : Constant
Bit rate : 1 509 Kbps
Channel(s) : 6 channels
Channel positions : Front: L C R, Side: L R, LFE
Sampling rate : 48.0 KHz
Bit depth : 24 bits
Compression mode : Lossy
Stream size : 238 MiB (20%)
Language : English
Default : Yes
Forced : No

File Name Size
The Office S09E01 720p BluRay DTS x264 CtrlHD.mkv 1.14 GB
The Office S09E02 720p BluRay DTS x264 CtrlHD.mkv 1.26 GB
The Office S09E03 720p BluRay DTS x264 CtrlHD.mkv 1.38 GB
The Office S09E04 720p BluRay DTS x264 CtrlHD.mkv 1.15 GB
The Office S09E05 720p BluRay DTS x264 CtrlHD.mkv 1.35 GB
The Office S09E06 720p BluRay DTS x264 CtrlHD.mkv 1.32 GB
The Office S09E07 720p BluRay DTS x264 CtrlHD.mkv 1.31 GB
The Office S09E08 720p BluRay DTS x264 CtrlHD.mkv 1.17 GB
The Office S09E09 720p BluRay DTS x264 CtrlHD.mkv 1.22 GB
The Office S09E10 720p BluRay DTS x264 CtrlHD.mkv 1.21 GB
The Office S09E11 720p BluRay DTS x264 CtrlHD.mkv 1.06 GB
The Office S09E12 720p BluRay DTS x264 CtrlHD.mkv 1.03 GB
The Office S09E13 720p BluRay DTS x264 CtrlHD.mkv 977.13 MB
The Office S09E14 720p BluRay DTS x264 CtrlHD.mkv 1,020.19 MB
The Office S09E15 720p BluRay DTS x264 CtrlHD.mkv 1.08 GB
The Office S09E16 720p BluRay DTS x264 CtrlHD.mkv 2.22 GB
The Office S09E17 720p BluRay DTS x264 CtrlHD.mkv 1.10 GB
The Office S09E18 720p BluRay DTS x264 CtrlHD.mkv 1.16 GB
The Office S09E19 720p BluRay DTS x264 CtrlHD.mkv 1.10 GB
The Office S09E20 720p BluRay DTS x264 CtrlHD.mkv 1.15 GB
The Office S09E21 720p BluRay DTS x264 CtrlHD.mkv 1.80 GB
The Office S09E22 720p BluRay DTS x264 CtrlHD.mkv 1.98 GB
The Office S09E23 720p BluRay DTS x264 CtrlHD.mkv 2.41 GB

Screenshot:

Sign up via clicking banner and a file link to creat a premium account.
The Office S09E05 720p WEB DL DD5 1 H 264 CtrlHD
ExtMatrix Download Links

Click Here for downloading links The Office S09 Complete 720p BluRay DTS x264 CtrlHD