External Links:

General
Complete name : The.Ricky.Gervais.Show.S03E08.Medicine.1080p.WEB-DL.DD5.1.H.264-BS.mkv
Format : Matroska
Format version : Version 2
File size : 914 MiB
Duration : 23mn 50s
Overall bit rate : 5 363 Kbps

Video
ID : 1
Format : AVC
Format/Info : Advanced Video Codec
Format profile : High@L4.0
Format settings, CABAC : Yes
Format settings, ReFrames : 4 frames
Codec ID : V_MPEG4/ISO/AVC
Duration : 23mn 50s
Bit rate : 4 872 Kbps
Width : 1 920 pixels
Height : 1 080 pixels
Display aspect ratio : 16:9
Frame rate mode : Constant
Frame rate : 23.976 fps
Color space : YUV
Chroma subsampling : 4:2:0
Bit depth : 8 bits
Scan type : Progressive
Bits/(Pixel*Frame) : 0.098
Stream size : 831 MiB (91%)
Language : English
Default : Yes
Forced : No
Color primaries : BT.709
Transfer characteristics : BT.709
Matrix coefficients : BT.709

Audio
ID : 2
Format : AC-3
Format/Info : Audio Coding 3
Mode extension : CM (complete main)
Format settings, Endianness : Big
Codec ID : A_AC3
Duration : 23mn 50s
Bit rate mode : Constant
Bit rate : 384 Kbps
Channel(s) : 6 channels
Channel positions : Front: L C R, Side: L R, LFE
Sampling rate : 48.0 KHz
Bit depth : 16 bits
Compression mode : Lossy
Stream size : 65.5 MiB (7%)
Language : English
Default : Yes
Forced : No

Text
ID : 3
Format : UTF-8
Codec ID : S_TEXT/UTF8
Codec ID/Info : UTF-8 Plain Text
Title : CC
Language : English
Default : No
Forced : No

File Name Size
The.Ricky.Gervais.Show.S03E01.Bryan’s.Brain.1080p.WEB DL.DD5.1.H.264 BS.mkv 954.45 MB
The.Ricky.Gervais.Show.S03E02.Comic.Relief.1080p.WEB DL.DD5.1.H.264 BS.mkv 898.09 MB
The.Ricky.Gervais.Show.S03E03.Armed.Forces.1080p.WEB DL.DD5.1.H.264 BS.mkv 914.08 MB
The.Ricky.Gervais.Show.S03E04.Room.102.1080p.WEB DL.DD5.1.H.264 BS.mkv 929.59 MB
The.Ricky.Gervais.Show.S03E05.Karl’s.Day.1080p.WEB DL.DD5.1.H.264 BS.mkv 959.14 MB
The.Ricky.Gervais.Show.S03E06.The.English.1080p.WEB DL.DD5.1.H.264 BS.mkv 1.02 GB
The.Ricky.Gervais.Show.S03E07.Law.and.Order.1080p.WEB DL.DD5.1.H.264 BS.mkv 953.02 MB
The.Ricky.Gervais.Show.S03E08.Medicine.1080p.WEB DL.DD5.1.H.264 BS.mkv 914.37 MB
The.Ricky.Gervais.Show.S03E09.Earth.1080p.WEB DL.DD5.1.H.264 BS.mkv 999.13 MB
The.Ricky.Gervais.Show.S03E10.Society.1080p.WEB DL.DD5.1.H.264 BS.mkv 977.18 MB
The.Ricky.Gervais.Show.S03E11.Wartime.1080p.WEB DL.DD5.1.H.264 BS.mkv 971.97 MB
The.Ricky.Gervais.Show.S03E12.World.Cup.1080p.WEB DL.DD5.1.H.264 BS.mkv 951.13 MB
The.Ricky.Gervais.Show.S03E13.The.Year.1080p.WEB DL.DD5.1.H.264 BS.mkv 984.25 MB

Screenshot:

Sign up via clicking banner and a file link to creat a premium account.Then Get the access to protected links.

ExtMatrix Download Links

Click Here for downloading links The Ricky Gervais Show S03 1080p WEB-DL DD5.1 H.264 BS