Series Info

# of Seasons: 25
Country: US
Air Day: Sunday
Air Time: 8:00 PM
First Aired: 1989-12-17
Rating: TV-PG
Series Status: Returning Series
Runtime: 30 Minutes
Network: FOX
Classification: Animation
TVDB Rating: 9.1
External Links:

The Simpsons (1989)

TV Series – TV_PG 22 min – tvAnimation | tvComedy | tvFamily
8.8

Your rating:

-/10
Ratings: 8.8/10 from 59,235 users
Reviews: 649 user | 148 critic

 

The satiric adventures of a working class family in the misfit city of Springfield.

General
Complete name : The.Simpsons.S25E01.Homerland.1080p.WEB-DL.DD5.1.H.264-NTb.mkv
Format : Matroska
Format version : Version 2
File size : 888 MiB
Duration : 22mn 49s
Overall bit rate : 5 435 Kbps

Video
ID : 1
Format : AVC
Format/Info : Advanced Video Codec
Format profile : High@L4.0
Format settings, CABAC : Yes
Format settings, ReFrames : 4 frames
Codec ID : V_MPEG4/ISO/AVC
Duration : 22mn 49s
Bit rate : 4 943 Kbps
Width : 1 912 pixels
Height : 1 072 pixels
Display aspect ratio : 16:9
Frame rate mode : Constant
Frame rate : 23.976 fps
Color space : YUV
Chroma subsampling : 4:2:0
Bit depth : 8 bits
Scan type : Progressive
Bits/(Pixel*Frame) : 0.101
Stream size : 807 MiB (91%)
Language : English
Default : Yes
Forced : No
Color primaries : BT.709
Transfer characteristics : BT.709
Matrix coefficients : BT.709

Audio
ID : 2
Format : AC-3
Format/Info : Audio Coding 3
Mode extension : CM (complete main)
Format settings, Endianness : Big
Codec ID : A_AC3
Duration : 22mn 49s
Bit rate mode : Constant
Bit rate : 384 Kbps
Channel(s) : 6 channels
Channel positions : Front: L C R, Side: L R, LFE
Sampling rate : 48.0 KHz
Bit depth : 16 bits
Compression mode : Lossy
Stream size : 62.7 MiB (7%)
Language : English
Default : Yes
Forced : No

The.Simpsons.S25.Season.Premiere.Sneak.Peek.1080p.WEB-DL.AAC2.0.H.264.HKD.mkv 48.45 MB

Screenshot:

Sign up via clicking banner and a file link to creat a premium account.Then Get the access to protected links.

ExtMatrix Download Links

The.Simpsons.S25.Season.Premiere.Sneak.Peek.1080p.WEB-DL.AAC2.0.H.264.HKD.mkv
The.Simpsons.S25E01.Homerland.1080p.WEB-DL.DD5.1.H.264-NTb.mkv
The.Simpsons.S25E02.Treehouse.of.Horror.XXIV.1080p.WEB-DL.DD5.1.H.264-NTb.mkv
The.Simpsons.S25E03.Four.Regrettings.and.a.Funeral.1080p.WEB-DL.DD5.1.H.264-NTb.mkv
The.Simpsons.S25E04.720p.HDTV.X264-DIMENSION.mkv
The.Simpsons.S25E05.720p.HDTV.X264-DIMENSION.mkv
The.Simpsons.S25E06.720p.HDTV.X264-DIMENSION.mkv
The.Simpsons.S25E08.720p.HDTV.X264-DIMENSION.mkv
The.Simpsons.S25E09.720p.HDTV.X264-DIMENSION.mkv
The.Simpsons.S25E10.720p.HDTV.X264-DIMENSION.mkv

Click Here for downloading links The Simpsons S25E04 1080p WEB-DL DD5 1 H 264 HKD

Click Here for downloading links The Simpsons S25E05 1080p WEB-DL DD5 1 H 264 HKD

Click Here for downloading links The Simpsons S25E06 1080p WEB-DL DD5 1 H 264 HKD

Click Here for downloading links The Simpsons S25E07 1080p WEB-DL DD5 1 H 264 HKD

Click Here for downloading links The Simpsons S25E08 1080p WEB-DL DD5 1 H 264 HKD

Click Here for downloading links The Simpsons S25E09 1080p WEB-DL DD5 1 H 264 HKD