Series Info
# of Seasons: 4
Country: US
Air Day: Sunday
Air Time: 9:00 PM
First Aired: 2010-10-31
Rating: TV-MA
Series Status: Returning Series
Runtime: 60 Minutes
Network: AMC
Classification: Scripted
TVDB Rating: 8.8
External Links:

The Walking Dead (2010)

TV Series – TV_14 45 min – tvDrama | tvHorror | tvThriller
8.7

Your rating:

-/10
Ratings: 8.7/10 from 146,438 users
Reviews: 329 user | 84 critic

 

Police officer Rick Grimes leads a group of survivors in a world overrun by zombies.

General
Complete name : The.Walking.Dead.S04E01.1080p.WEB-DL.DD5.1.H.264.HKD.mkv
Format : Matroska
Format version : Version 4 / Version 2
File size : 1.71 GiB
Duration : 43mn 3s
Overall bit rate : 5 684 Kbps
Movie name : ripped by CrazyHDSource.com

Video
ID : 1
Format : AVC
Format/Info : Advanced Video Codec
Format profile : High@L4.0
Format settings, CABAC : Yes
Format settings, ReFrames : 4 frames
Codec ID : V_MPEG4/ISO/AVC
Duration : 43mn 3s
Bit rate : 5 187 Kbps
Width : 1 916 pixels
Height : 1 076 pixels
Display aspect ratio : 16:9
Frame rate mode : Constant
Frame rate : 23.976 fps
Color space : YUV
Chroma subsampling : 4:2:0
Bit depth : 8 bits
Scan type : Progressive
Bits/(Pixel*Frame) : 0.105
Stream size : 1.56 GiB (91%)
Title : ripped by CrazyHDSource.com
Language : English
Default : Yes
Forced : No
Color primaries : BT.709
Transfer characteristics : BT.709
Matrix coefficients : BT.709

Audio
ID : 2
Format : AC-3
Format/Info : Audio Coding 3
Mode extension : CM (complete main)
Format settings, Endianness : Big
Codec ID : A_AC3
Duration : 43mn 3s
Bit rate mode : Constant
Bit rate : 384 Kbps
Channel(s) : 6 channels
Channel positions : Front: L C R, Side: L R, LFE
Sampling rate : 48.0 KHz
Bit depth : 16 bits
Compression mode : Lossy
Stream size : 118 MiB (7%)
Language : English
Default : Yes
Forced : No

Text
ID : 3
Format : UTF-8
Codec ID : S_TEXT/UTF8
Codec ID/Info : UTF-8 Plain Text
Language : English
Default : No
Forced : No

File Name Size
The.Walking.Dead.S04E01.720p.WEB DL.DD5.1.H.264 Cyphanix.mkv 1.35 GB
The.Walking.Dead.S04E02.Infected.720p.WEB DL.DD5.1.H.264 AuSy.mkv 1.35 GB
The.Walking.Dead.S04E03.Isolation.720p.WEB DL.DD5.1.H.264 AuSy.mkv 1.30 GB
The.Walking.Dead.S04E04.Indifference.720p.WEB DL.DD5.1.H.264 AuSy.mkv 1.29 GB
The.Walking.Dead.S04E05.Internment.720p.WEB DL.DD5.1.H.264 AuSy.mkv 1.33 GB
The.Walking.Dead.S04E06.Live.Bait.REPACK.720p.WEB DL.DD5.1.H.264 AuSy.mkv 1.36 GB
The.Walking.Dead.S04E07.Dead.Weight.720p.WEB DL.DD5.1.H.264 AuSy.mkv 1.36 GB
The.Walking.Dead.S04E08.Too.Far.Gone.720p.WEB DL.DD5.1.H.264 AuSy.mkv 1.35 GB
The.Walking.Dead.S04E09.After.720p.WEB DL.DD5.1.H.264 AuSy.mkv 1.31 GB
The.Walking.Dead.S04E10.Inmates.720p.WEB DL.DD5.1.H.264 AuSy.mkv 1.37 GB
The.Walking.Dead.S04E11.Claimed.720p.WEB DL.DD5.1.H.264 AuSy.mkv 1.33 GB
The.Walking.Dead.S04E12.Still.720p.WEB DL.DD5.1.H.264 AuSy.mkv 1.33 GB
The.Walking.Dead.S04E13.Alone.720p.WEB DL.DD5.1.H.264 AuSy.mkv 1.33 GB
The.Walking.Dead.S04E14.The.Grove.720p.WEB DL.DD5.1.H.264 AuSy.mkv 1.31 GB
The.Walking.Dead.S04E15.Us.REPACK.720p.WEB DL.DD5.1.H.264 AuSy.mkv 1.36 GB
The.Walking.Dead.S04E16.A.720p.WEB DL.DD5.1.H.264 AuSy.mkv 1.40 GB
File Name Size
The.Walking.Dead.S04E01.1080p.WEB DL.DD5.1.H.264 HKD.mkv 1.71 GB
The.Walking.Dead.S04E02.Infected.1080p.WEB DL.DD5.1.H.264 AuSy.mkv 1.63 GB
The.Walking.Dead.S04E03.Isolation.1080p.WEB DL.DD5.1.H.264 AuSy.mkv 1.62 GB
The.Walking.Dead.S04E04.Indifference.1080p.WEB DL.DD5.1.H.264 AuSy.mkv 1.72 GB
The.Walking.Dead.S04E05.Internment.1080p.WEB DL.DD5.1.H.264 AuSy.mkv 1.69 GB
The.Walking.Dead.S04E06.Live.Bait.REPACK.1080p.WEB DL.DD5.1.H.264 AuSy.mkv 1.58 GB
The.Walking.Dead.S04E07.Dead.Weight.1080p.WEB DL.DD5.1.H.264 AuSy.mkv 1.65 GB
The.Walking.Dead.S04E08.Too.Far.Gone.1080p.WEB DL.DD5.1.H.264 AuSy.mkv 1.67 GB
The.Walking.Dead.S04E09.After.1080p.WEB DL.DD5.1.H.264 AuSy.mkv 1.62 GB
The.Walking.Dead.S04E10.Inmates.1080p.WEB DL.DD5.1.H.264 AuSy.mkv 1.69 GB
The.Walking.Dead.S04E11.Claimed.1080p.WEB DL.DD5.1.H.264 AuSy.mkv 1.65 GB
The.Walking.Dead.S04E12.Still.1080p.WEB DL.DD5.1.H.264 AuSy.mkv 1.64 GB
The.Walking.Dead.S04E13.Alone.1080p.WEB DL.DD5.1.H.264 AuSy.mkv 1.65 GB
The.Walking.Dead.S04E14.The.Grove.1080p.WEB DL.DD5.1.H.264 AuSy.mkv 1.66 GB
The.Walking.Dead.S04E15.Us.REPACK.1080p.WEB DL.DD5.1.H.264 AuSy.mkv 1.68 GB
The.Walking.Dead.S04E16.A.1080p.WEB DL.DD5.1.H.264 AuSy.mkv 1.66 GB

Screenshot:

Sign up via clicking banner and a file link to creat a premium account.Then Get the access to protected links.

ExtMatrix Download Links

The.Walking.Dead.S04.102.The.Walking.Dead_.Cast.On.the.Set of Season 4.1080p.WEB-DL.AAC2.0.H.264-HKD.mkv
The.Walking.Dead.S04E12.Still.720p.WEB-DL.DD5.1.H.264-AuSy.mkv
The.Walking.Dead.S04E16.A.720p.WEB-DL.DD5.1.H.264-AuSy.mkv

Click Here for downloading links The Walking Dead S04 Complete 1080p WEB-DL DD5.1 H.264 AuSy HKD