Useful link:

IMDB

TVRAGE

TVDB

MediaInfo:
General
Complete name : torchwood.s04e04.720p.bluray.x264-shortbrehd.mkv
Format : Matroska
Format version : Version 2
File size : 2.18 GiB
Duration : 54mn 51s
Overall bit rate : 5 696 Kbps

Video
ID : 1
Format : AVC
Format/Info : Advanced Video Codec
Format profile : High@L4.1
Format settings, CABAC : Yes
Format settings, ReFrames : 5 frames
Codec ID : V_MPEG4/ISO/AVC
Duration : 54mn 51s
Bit rate : 4 185 Kbps
Width : 1 280 pixels
Height : 720 pixels
Display aspect ratio : 16:9
Frame rate mode : Constant
Frame rate : 25.000 fps
Color space : YUV
Chroma subsampling : 4:2:0
Bit depth : 8 bits
Scan type : Progressive
Bits/(Pixel*Frame) : 0.182
Stream size : 1.56 GiB (72%)
Writing library : x264 core 119 r2106 07efeb4
Encoding settings : cabac=1 / ref=5 / deblock=1:0:0 / analyse=0x3:0x113 / me=umh / subme=8 / psy=1 /

Audio
ID : 2
Format : DTS
Format/Info : Digital Theater Systems
Mode : 16
Format settings, Endianness : Big
Codec ID : A_DTS
Duration : 54mn 51s
Bit rate mode : Constant
Bit rate : 1 509 Kbps
Channel(s) : 6 channels
Channel positions : Front: L C R, Side: L R, LFE
Sampling rate : 48.0 KHz
Bit depth : 24 bits
Compression mode : Lossy
Stream size : 592 MiB (26%)
Language : English
Default : Yes
Forced : No

Menu
00:00:00.000 : en:00:00:00.000
00:09:55.480 : en:00:09:55.480
00:18:37.080 : en:00:18:37.080
00:28:00.680 : en:00:28:00.680
00:36:46.000 : en:00:36:46.000
00:53:06.760 : en:00:53:06.760
00:53:49.960 : en:00:53:49.960

rv-tw-s01e01.mkv 2.19 GB
rv-tw-s01e02.mkv 2.18 GB
rv-tw-s01e03.mkv 2.19 GB
rv-tw-s01e04.mkv 2.18 GB
rv-tw-s01e05.mkv 2.19 GB
rv-tw-s01e06.mkv 2.18 GB
rv-tw-s01e07.mkv 2.18 GB
rv-tw-s01e08.mkv 2.18 GB
rv-tw-s01e09.mkv 2.19 GB
rv-tw-s01e10.mkv 2.19 GB
rv-tw-s01e11.mkv 2.18 GB
rv-tw-s01e12.mkv 2.18 GB
rv-tw-s01e13.mkv 2.18 GB

rv-torchwood-s02e01.mkv 2.18 GB
rv-torchwood-s02e02.mkv 2.18 GB
rv-torchwood-s02e03.mkv 2.18 GB
rv-torchwood-s02e04.mkv 2.18 GB
rv-torchwood-s02e05.mkv 2.18 GB
rv-torchwood-s02e06.mkv 2.19 GB
rv-torchwood-s02e07.mkv 2.18 GB
rv-torchwood-s02e08.mkv 2.18 GB
rv-torchwood-s02e09.mkv 2.18 GB
rv-torchwood-s02e10.mkv 2.18 GB
rv-torchwood-s02e11.mkv 2.18 GB
rv-torchwood-s02e12.mkv 2.18 GB
rv-torchwood-s02e13.mkv 2.18 GB

rv-torchwood-s03e01.mkv 2.65 GB
rv-torchwood-s03e02.mkv 2.65 GB
rv-torchwood-s03e03.mkv 2.65 GB
rv-torchwood-s03e04.mkv 2.65 GB
rv-torchwood-s03e05.mkv 2.65 GB

torchwood.s04e01.720p.bluray.x264-shortbrehd.mkv 2.18 GB
torchwood.s04e02.720p.bluray.x264-shortbrehd.mkv 2.18 GB
torchwood.s04e03.720p.bluray.x264-shortbrehd.mkv 2.18 GB
torchwood.s04e04.720p.bluray.x264-shortbrehd.mkv 2.18 GB
torchwood.s04e05.720p.bluray.x264-shortbrehd.mkv 2.18 GB
torchwood.s04e06.720p.bluray.x264-shortbrehd.mkv 2.18 GB
torchwood.s04e07.720p.bluray.x264-shortbrehd.mkv 2.18 GB
torchwood.s04e08.720p.bluray.x264-shortbrehd.mkv 2.18 GB
torchwood.s04e09.720p.bluray.x264-shortbrehd.mkv 2.18 GB
torchwood.s04e10.720p.bluray.x264-shortbrehd.mkv 2.18 GB

Screenshot:

Sign up via clicking banner and a file link to creat a premium account.Then Get the access to protected links.

ExtMatrix Download Links

rv-tw-s01e01.mkv
rv-tw-s01e02.mkv

Click Here for downloading links Torchwood S01 S02 S03 S04 Complete Season PROPER 720p BluRay x264 REAVERS SHORTBREHD