External Links:

General
Complete name : True.Blood.S06E01.Who.Are.You.Really.1080p.WEB-DL.DD5.1.H.264-NTb.mkv
Format : Matroska
Format version : Version 2
File size : 1.94 GiB
Duration : 52mn 5s
Overall bit rate : 5 326 Kbps
Writing application : mkvmerge v5.8.0 (‘No Sleep / Pillow’) built on Sep 2 2012 15:37:04
Writing library : libebml v1.2.3 + libmatroska v1.3.0

Video
ID : 1
Format : AVC
Format/Info : Advanced Video Codec
Format profile : High@L4.0
Format settings, CABAC : Yes
Format settings, ReFrames : 4 frames
Codec ID : V_MPEG4/ISO/AVC
Duration : 52mn 5s
Bit rate : 4 836 Kbps
Width : 1 920 pixels
Height : 1 080 pixels
Display aspect ratio : 16:9
Frame rate mode : Constant
Frame rate : 23.976 fps
Color space : YUV
Chroma subsampling : 4:2:0
Bit depth : 8 bits
Scan type : Progressive
Bits/(Pixel*Frame) : 0.097
Stream size : 1.76 GiB (91%)
Language : English
Default : Yes
Forced : No
Color primaries : BT.709
Transfer characteristics : BT.709
Matrix coefficients : BT.709

Audio
ID : 2
Format : AC-3
Format/Info : Audio Coding 3
Mode extension : CM (complete main)
Format settings, Endianness : Big
Codec ID : A_AC3
Duration : 52mn 5s
Bit rate mode : Constant
Bit rate : 384 Kbps
Channel(s) : 6 channels
Channel positions : Front: L C R, Side: L R, LFE
Sampling rate : 48.0 KHz
Bit depth : 16 bits
Compression mode : Lossy
Stream size : 143 MiB (7%)
Language : English
Default : Yes
Forced : No

File Name Size
True.Blood.S06E01.Who.Are.You.Really.720p.WEB DL.DD5.1.H.264 NTb.mkv 1.62 GB
True.Blood.S06E02.The.Sun.720p.WEB DL.DD5.1.H.264 NTb.mkv 1.61 GB
True.Blood.S06E03.You’re.No.Good.720p.WEB DL.DD5.1.H.264 NTb.mkv 1.73 GB
True.Blood.S06E04.At.Last.720p.WEB DL.DD5.1.H.264 NTb.mkv 1.73 GB
True.Blood.S06E05.The.Pain.Away.720p.WEB DL.DD5.1.H.264 NTb.mkv 1.69 GB
True.Blood.S06E06.Don’t.You.Feel.Me.720p.WEB DL.DD5.1.H.264 NTb.mkv 1.72 GB
True.Blood.S06E07.In.the.Evening.720p.WEB DL.DD5.1.H.264 NTb.mkv 1.74 GB
True.Blood.S06E08.Dead.Meat.720p.WEB DL.DD5.1.H.264 NTb.mkv 1.83 GB
True.Blood.S06E09.Life.Matters.720p.WEB DL.DD5.1.H.264 NTb.mkv 1.63 GB
True.Blood.S06E10.Radioactive.720p.WEB DL.DD5.1.H.264 NTb.mkv 1.64 GB
File Name Size
True.Blood.S06E01.Who.Are.You.Really.1080p.WEB DL.DD5.1.H.264 NTb.mkv 1.94 GB
True.Blood.S06E02.The.Sun.1080p.WEB DL.DD5.1.H.264 NTb.mkv 1.90 GB
True.Blood.S06E03.You’re.No.Good.1080p.WEB DL.DD5.1.H.264 NTb.mkv 2.24 GB
True.Blood.S06E04.At.Last.1080p.WEB DL.DD5.1.H.264 NTb.mkv 2.13 GB
True.Blood.S06E05.Fuck.the.Pain.Away.1080p.WEB DL.DD5.1.H.264 NTb.mkv 2.01 GB
True.Blood.S06E06.Don’t.You.Feel.Me.1080p.WEB DL.DD5.1.H.264 NTb.mkv 2.13 GB
True.Blood.S06E07.In.the.Evening.1080p.WEB DL.DD5.1.H.264 NTb.mkv 2.15 GB
True.Blood.S06E08.Dead.Meat.1080p.WEB DL.DD5.1.H.264 NTb.mkv 2.08 GB
True.Blood.S06E09.Life.Matters.1080p.WEB DL.DD5.1.H.264 NTb.mkv 2.10 GB
True.Blood.S06E10.Radioactive.1080p.WEB DL.DD5.1.H.264 NTb.mkv 2.09 GB

Screenshot:

Sign up via clicking banner and a file link to creat a premium account.

ExtMatrix Download Links

True.Blood.S06E01.Who.Are.You.Really.1080p.WEB-DL.DD5.1.H.264-NTb.mkv
True.Blood.S06E02.The.Sun.1080p.WEB-DL.DD5.1.H.264-NTb.mkv
True.Blood.S06E03.Youre.No.Good.1080p.WEB-DL.DD5.1.H.264-NTb.mkv
True.Blood.S06E05.Fuck.the.Pain.Away.1080p.WEB-DL.DD5.1.H.264-NTb.mkv
True.Blood.S06E08.Dead.Meat.1080p.WEB-DL.DD5.1.H.264-NTb.mkv
True.Blood.S06E09.Life.Matters.1080p.WEB-DL.DD5.1.H.264-NTb.mkv
True.Blood.S06E10.Radioactive.720p.WEB-DL.DD5.1.H.264-NTb.ra