Useful link:

IMDB

TVRAGE

TVDB

MediaInfo:
General
Complete name : True.Blood.S07E01.720p.HDTV.DD5.1.×264-DON.mkv
Format : Matroska
Format version : Version 4 / Version 2
File size : 2.70 GiB
Duration : 54mn 7s
Overall bit rate : 7 147 Kbps

Video
ID : 1
Format : AVC
Format/Info : Advanced Video Codec
Format profile : High@L4.1
Format settings, CABAC : Yes
Format settings, ReFrames : 9 frames
Codec ID : V_MPEG4/ISO/AVC
Duration : 54mn 7s
Bit rate : 6 621 Kbps
Width : 1 280 pixels
Height : 714 pixels
Display aspect ratio : 16:9
Frame rate mode : Constant
Frame rate : 23.976 fps
Color space : YUV
Chroma subsampling : 4:2:0
Bit depth : 8 bits
Scan type : Progressive
Bits/(Pixel*Frame) : 0.302
Stream size : 2.50 GiB (93%)
Writing library : x264 core 142 r2431kMod ac76440
Encoding settings : cabac=1 / ref=9 / deblock=1:-3:-3 / analyse=0x3:0x113 / me=umh / subme=11 / psy=1 /

Audio
ID : 2
Format : AC-3
Format/Info : Audio Coding 3
Mode extension : CM (complete main)
Format settings, Endianness : Big
Codec ID : A_AC3
Duration : 54mn 7s
Bit rate mode : Constant
Bit rate : 384 Kbps
Channel(s) : 2 channels
Channel positions : Front: L R
Sampling rate : 48.0 KHz
Bit depth : 16 bits
Compression mode : Lossy
Stream size : 149 MiB (5%)
Language : English
Default : Yes
Forced : No

Text #1
ID : 3
Format : UTF-8
Codec ID : S_TEXT/UTF8
Codec ID/Info : UTF-8 Plain Text
Language : English
Default : No
Forced : No

Text #2
ID : 4
Format : UTF-8
Codec ID : S_TEXT/UTF8
Codec ID/Info : UTF-8 Plain Text
Title : SDH
Language : English
Default : No
Forced : No

Screenshot:

Sign up via clicking banner and a file link to creat a premium account.Then Get the access to protected links.

ExtMatrix Download Links

True.Blood.S07E01.Jesus.Gonna.Be.Here.1080p.WEB-DL.DD5.1.AAC2.0.H.264-YFN.mkv
True.Blood.S07E02.I.Found.You.1080p.WEB-DL.DD5.1.AAC2.0.H.264-YFN.mkv
True.Blood.S07E03.Fire.in.the.Hole.1080p.WEB-DL.DD5.1.H.264.mkv
True.Blood.S07E04.Death.is.Not.the.End.1080p.WEB-DL.DD5.1.AAC2.0.H.264-YFN.mkv
True.Blood.S07E05.Lost.Cause.1080p.WEB-DL.DD5.1.H.264.mkv
True.Blood.S07E06.Karma.1080p.WEB-DL.DD5.1.H.264.mkv
True.Blood.S07E07.May.Be.The.Last.Time.1080p.WEB-DL.DD5.1.H.264.mkv
True.Blood.S07E08.Almost.Home.1080p.WEB-DL.DD5.1.H.264.mkv
True.Blood.S07E08.Almost.Home.720p.WEB-DL.DD5.1.H.264.mkv
True.Blood.S07E09.Love.is.to.Die.1080p.WEB-DL.DD5.1.AAC2.0.H.264-YFN.mkv