External Links:

General
Complete name : Twisted.S01E01.Pilot.1080p.WEB-DL.DD5.1.H.264-HKD.mkv
Format : Matroska
Format version : Version 4 / Version 2
File size : 1.79 GiB
Duration : 45mn 50s
Overall bit rate : 5 604 Kbps
Movie name : ripped by CrazyHDSource.com
Encoded date : UTC 2013-06-13 13:06:57
Writing application : mkvmerge v6.0.0 (‘Coming Up For Air’) built on Jan 20 2013 09:52:00
Writing library : libebml v1.3.0 + libmatroska v1.4.0

Video
ID : 1
Format : AVC
Format/Info : Advanced Video Codec
Format profile : High@L4.0
Format settings, CABAC : Yes
Format settings, ReFrames : 4 frames
Codec ID : V_MPEG4/ISO/AVC
Duration : 45mn 50s
Bit rate : 5 108 Kbps
Width : 1 920 pixels
Height : 1 080 pixels
Display aspect ratio : 16:9
Frame rate mode : Constant
Frame rate : 23.976 fps
Color space : YUV
Chroma subsampling : 4:2:0
Bit depth : 8 bits
Scan type : Progressive
Bits/(Pixel*Frame) : 0.103
Stream size : 1.64 GiB (91%)
Title : ripped by CrazyHDSource.com
Language : English
Default : Yes
Forced : No
Color primaries : BT.709
Transfer characteristics : BT.709
Matrix coefficients : BT.709

Audio
ID : 2
Format : AC-3
Format/Info : Audio Coding 3
Mode extension : CM (complete main)
Format settings, Endianness : Big
Codec ID : A_AC3
Duration : 45mn 50s
Bit rate mode : Constant
Bit rate : 384 Kbps
Channel(s) : 6 channels
Channel positions : Front: L C R, Side: L R, LFE
Sampling rate : 48.0 KHz
Bit depth : 16 bits
Compression mode : Lossy
Stream size : 126 MiB (7%)
Language : English
Default : Yes
Forced : No

Text
ID : 3
Format : UTF-8
Codec ID : S_TEXT/UTF8
Codec ID/Info : UTF-8 Plain Text
Language : English
Default : No
Forced : No

Twisted.2013.S01.Special.Twisted.Socio.Studies.101.1080p.WEB DL.DD5.1.H.264 TVSmash.mkv1.68 GB
Twisted.2013.S01E08.Docu-Trauma.REPACK.1080p.WEB-DL.DD5.1.H.264-TVSmash.mkv 1.81 GB
Screenshot:

Sign up via clicking banner and a file link to creat a premium account.

ExtMatrix Download Links

Twisted.S01E03.1080p.WEB-DL.DD5.1.H.264.HKD.part3.rar