External Links:

General
Complete name : Two.and.a.Half.Men.S11E01.Nangnangnangnang.1080p.WEB-DL.DD5.1.H.264-CtrlHD.mkv
Format : Matroska
Format version : Version 2
File size : 826 MiB
Duration : 21mn 22s
Overall bit rate : 5 403 Kbps

Video
ID : 1
Format : AVC
Format/Info : Advanced Video Codec
Format profile : High@L4.0
Format settings, CABAC : Yes
Format settings, ReFrames : 4 frames
Codec ID : V_MPEG4/ISO/AVC
Duration : 21mn 22s
Bit rate : 4 912 Kbps
Width : 1 916 pixels
Height : 1 080 pixels
Display aspect ratio : 16:9
Frame rate mode : Constant
Frame rate : 23.976 fps
Color space : YUV
Chroma subsampling : 4:2:0
Bit depth : 8 bits
Scan type : Progressive
Bits/(Pixel*Frame) : 0.099
Stream size : 751 MiB (91%)
Language : English
Default : Yes
Forced : No
Color primaries : BT.709
Transfer characteristics : BT.709
Matrix coefficients : BT.709

Audio
ID : 2
Format : AC-3
Format/Info : Audio Coding 3
Mode extension : CM (complete main)
Format settings, Endianness : Big
Codec ID : A_AC3
Duration : 21mn 22s
Bit rate mode : Constant
Bit rate : 384 Kbps
Channel(s) : 6 channels
Channel positions : Front: L C R, Side: L R, LFE
Sampling rate : 48.0 KHz
Bit depth : 16 bits
Compression mode : Lossy
Stream size : 58.7 MiB (7%)
Language : English
Default : Yes
Forced : No

Text
ID : 3
Format : UTF-8
Codec ID : S_TEXT/UTF8
Codec ID/Info : UTF-8 Plain Text
Title : CC
Language : English
Default : No
Forced : No

Screenshot:

Sign up via clicking banner and a file link to creat a premium account.Then Get the access to protected links.

ExtMatrix Download Links

Two.and.a.Half.Men.S11E01.Nangnangnangnang.1080p.WEB-DL.DD5.1.H.264-CtrlHD.mkv
Two.and.a.Half.Men.S11E02.I.Think.I.Banged.Lucille.Ball.1080p.WEB-DL.DD5.1.H.264-CtrlHD.mkv
Two.and.a.Half.Men.S11E01.Nangnangnangnang.720p.WEB-DL.DD5.1.H.264-CtrlHD.mkv
Two.and.a.Half.Men.S11E02.I.Think.I.Banged.Lucille.Ball.720p.WEB-DL.DD5.1.H.264-CtrlHD.mkv
Two.and.a.Half.Men.S11E03.This.Unblessed.Biscuit.1080p.WEB-DL.DD5.1.H.264-CtrlHD.mkv
Two.and.a.Half.Men.S11E03.This.Unblessed.Biscuit.720p.WEB-DL.DD5.1.H.264-CtrlHD.mkv
Two.and.a.Half.Men.S11E04.Clank.Clank.Drunken.Skank.720p.WEB-DL.DD5.1.H.264-CtrlHD.mkv
Two.and.a.Half.Men.S11E04.Clank.Clank.Drunken.Skank.1080p.WEB-DL.DD5.1.H.264-CtrlHD.mkv
Two.and.a.Half.Men.S11E05.Alan.Harper.Pleasing.Women.Since.2003.720p.WEB-DL.DD5.1.H.264-CtrlHD.mkv
Two.and.a.Half.Men.S11E05.Alan.Harper.Pleasing.Women.Since.2003.1080p.WEB-DL.DD5.1.H.264-CtrlHD.mkv
Two.and.a.Half.Men.S11E06.Justice.in.Star-Spangled.Hot.Pants.1080p.WEB-DL.DD5.1.H.264-CtrlHD.mkv
Two.and.a.Half.Men.S11E06.Justice.in.Star-Spangled.Hot.Pants.720p.WEB-DL.DD5.1.H.264-CtrlHD.mkv
Two.and.a.Half.Men.S11E07.Some.Kind.of.Lesbian.Zombie.720p.WEB-DL.DD5.1.H.264-CtrlHD.mkv
Two.and.a.Half.Men.S11E07.Some.Kind.of.Lesbian.Zombie.1080p.WEB-DL.DD5.1.H.264-CtrlHD.mkv
Two.and.a.Half.Men.S11E08.Mr.Walden.He.Die.I.Clean.Room.720p.WEB-DL.DD5.1.H.264-CtrlHD.mkv
Two.and.a.Half.Men.S11E09.Numero.Uno.Accidente.Lawyer.720p.WEB-DL.DD5.1.H.264-CtrlHD.mkv
Two.and.a.Half.Men.S11E09.1080p.WEB-DL.DD5.1.H.264.HKD.part1.rar
Two.and.a.Half.Men.S11E09.1080p.WEB-DL.DD5.1.H.264.HKD.part2.rar
Two.and.a.Half.Men.S11E10.On.Vodka.On.Soda.On.Blender.On.Mixer.720p.WEB-DL.DD5.1.H.264-CtrlHD.mkv
Two.and.a.Half.Men.S11E10.On.Vodka.On.Soda.On.Blender.On.Mixer.1080p.WEB-DL.DD5.1.H.264-CtrlHD.mkv
Two.and.a.Half.Men.S11E11.Tazed.in.the.Lady.Nuts.1080p.WEB-DL.DD5.1.H.264-CtrlHD.mkv
Two.and.a.Half.Men.S11E11.Tazed.in.the.Lady.Nuts.720p.WEB-DL.DD5.1.H.264-CtrlHD.mkv
Two.and.a.Half.Men.S11E12.Baseball.Boobs.Boobs.Baseball.720p.WEB-DL.DD5.1.H.264-CtrlHD.mkv
Two.and.a.Half.Men.S11E12.Baseball.Boobs.Boobs.Baseball.1080p.WEB-DL.DD5.1.H.264-CtrlHD.mkv

Click Here for downloading links Two and a Half Men S11E08 1080p WEB-DL DD5 1 H 264 HKD