External Links:

General
Complete name : Unforgettable.S01E20.You.Are.Here.720p.WEB-DL.DD5.1.H.264-CtrlHD.mkv
Format : Matroska
Format version : Version 2
File size : 1.31 GiB
Duration : 41mn 25s
Overall bit rate : 4 531 Kbps

Video
ID : 1
Format : AVC
Format/Info : Advanced Video Codec
Format profile : High@L3.1
Format settings, CABAC : No
Format settings, ReFrames : 2 frames
Codec ID : V_MPEG4/ISO/AVC
Duration : 41mn 25s
Bit rate : 4 056 Kbps
Width : 1 280 pixels
Height : 720 pixels
Display aspect ratio : 16:9
Frame rate mode : Constant
Frame rate : 23.976 fps
Color space : YUV
Chroma subsampling : 4:2:0
Bit depth : 8 bits
Scan type : Progressive
Bits/(Pixel*Frame) : 0.184
Stream size : 1.17 GiB (90%)
Language : English
Default : Yes
Forced : No
Color primaries : BT.709
Transfer characteristics : BT.709
Matrix coefficients : BT.709

Audio
ID : 2
Format : AC-3
Format/Info : Audio Coding 3
Mode extension : CM (complete main)
Format settings, Endianness : Big
Codec ID : A_AC3
Duration : 41mn 25s
Bit rate mode : Constant
Bit rate : 384 Kbps
Channel(s) : 6 channels
Channel positions : Front: L C R, Side: L R, LFE
Sampling rate : 48.0 KHz
Bit depth : 16 bits
Compression mode : Lossy
Stream size : 114 MiB (8%)
Language : English
Default : Yes
Forced : No

File name Size
Unforgettable.S01E01.720p.WEB-DL.DD5.1.H.264-ViPER.mkv 1.32 GB
Unforgettable.S01E02.Heroes.720p.WEB-DL.DD5.1.H.264-ViPER.mkv 1.39 GB
Unforgettable.S01E03.Check.Out.Time.720p.WEB-DL.DD5.1.H.264-ViPER.mkv 1.37 GB
Unforgettable.S01E04.Up.In.Flames.720p.WEB-DL.DD5.1.H.264-ViPER.mkv 1.19 GB
Unforgettable.S01E05.With.Honor.720p.WEB-DL.DD5.1.H.264-ViPER.mkv 1.34 GB
Unforgettable.S01E06.Friended.720p.WEB-DL.DD5.1.H.264-ViPER.mkv 1.35 GB
Unforgettable.S01E07.Road.Block.720p.WEB-DL.DD5.1.H.264-ViPER.mkv 1.35 GB
Unforgettable.S01E08.Lost.Things.720p.WEB-DL.DD5.1.H.264-ViPER.mkv 1.33 GB
Unforgettable.S01E09.Golden.Bird.720p.WEB-DL.DD5.1.H.264-ViPER.mkv 1.26 GB
Unforgettable.S01E10.Trajectories.720p.WEB-DL.DD5.1.H.264-ViPER.mkv 1.25 GB
Unforgettable.S01E11.Spirited.Away.720p.WEB-DL.DD5.1.H.264-ViPER.mkv 1.36 GB
Unforgettable.S01E12.Butterfly.Effect.720p.WEB-DL.DD5.1.H.264-ViPER.mkv 1.29 GB
Unforgettable.S01E13.Brotherhood.720p.WEB-DL.DD5.1.H.264-ViPER.mkv 1.25 GB
Unforgettable.S01E14.Carrie’s.Caller.720p.WEB-DL.DD5.1.H.264-CtrlHD.mkv 1.38 GB
Unforgettable.S01E15.The.Following.Sea.720p.WEB-DL.DD5.1.H.264-CtrlHD.mkv 1.31 GB
Unforgettable.S01E16.Heartbreak.720p.WEB-DL.DD5.1.H.264-CtrlHD.mkv 1.33 GB
Unforgettable.S01E17.Blind.Alleys.720p.WEB-DL.DD5.1.H.264-CtrlHD.mkv 1.34 GB
Unforgettable.S01E18.The.Comeback.720p.WEB-DL.DD5.1.H.264-CtrlHD.mkv 1.32 GB
Unforgettable.S01E19.Allegiances.720p.WEB-DL.DD5.1.H.264-CtrlHD.mkv 1.31 GB
Unforgettable.S01E20.You.Are.Here.720p.WEB-DL.DD5.1.H.264-CtrlHD.mkv 1.31 GB
Unforgettable.S01E21.Endgame.720p.WEB-DL.DD5.1.H.264-CtrlHD.mkv 1.21 GB
Unforgettable.S01E22.The.Man.in.the.Woods.720p.WEB-DL.DD5.1.H.264-CtrlHD.mkv 1.32 GB

Screenshot:

Sign up via clicking banner and a file link to creat a premium account.

ExtMatrix Download Links

Unforgettable.S01E01.720p.WEB-DL.DD5.1.H.264-ViPER.ra
Unforgettable.S01E02.Heroes.720p.WEB-DL.DD5.1.H.264-ViPER.ra