Useful link:

MediaInfo:
General
Complete name : Vampire.Academy.2014.720p.BluRay.x264-SPARKS.mkv
Format : Matroska
Format version : Version 4 / Version 2
File size : 4.37 GiB
Duration : 1h 44mn
Overall bit rate : 5 991 Kbps

Video
ID : 1
Format : AVC
Format/Info : Advanced Video Codec
Format profile : High@L4.1
Format settings, CABAC : Yes
Format settings, ReFrames : 5 frames
Codec ID : V_MPEG4/ISO/AVC
Duration : 1h 44mn
Bit rate : 4 481 Kbps
Width : 1 280 pixels
Height : 536 pixels
Display aspect ratio : 2.40:1
Frame rate mode : Constant
Frame rate : 23.976 fps
Color space : YUV
Chroma subsampling : 4:2:0
Bit depth : 8 bits
Scan type : Progressive
Bits/(Pixel*Frame) : 0.272
Stream size : 3.18 GiB (73%)
Writing library : x264 core 142 r2431 ac76440
Encoding settings : cabac=1 / ref=5 / deblock=1:0:0 / analyse=0x3:0x133 / me=umh / subme=7 / psy=1 /

Audio
ID : 2
Format : DTS
Format/Info : Digital Theater Systems
Mode : 16
Format settings, Endianness : Big
Codec ID : A_DTS
Duration : 1h 44mn
Bit rate mode : Constant
Bit rate : 1 509 Kbps
Channel(s) : 6 channels
Channel positions : Front: L C R, Side: L R, LFE
Sampling rate : 48.0 KHz
Bit depth : 24 bits
Compression mode : Lossy
Stream size : 1.10 GiB (25%)
Language : English
Default : Yes
Forced : No

Menu
00:00:00.000 : en:00:00:00.000
00:06:11.913 : en:00:06:11.913
00:13:48.661 : en:00:13:48.661
00:19:34.590 : en:00:19:34.590
00:26:25.834 : en:00:26:25.834
00:33:07.652 : en:00:33:07.652
00:39:47.760 : en:00:39:47.760
00:46:29.120 : en:00:46:29.120
00:51:45.853 : en:00:51:45.853
00:56:13.579 : en:00:56:13.579
01:01:42.324 : en:01:01:42.324
01:07:31.005 : en:01:07:31.005
01:13:32.533 : en:01:13:32.533
01:21:50.072 : en:01:21:50.072
01:30:11.781 : en:01:30:11.781
01:36:05.677 : en:01:36:05.677

Screenshot:

Sign up via clicking banner and a file link to creat a premium account.Then Get the access to protected links.

ExtMatrix Download Links

Vampire.Academy.2014.720p.BluRay.x264-SPARKS.mkv