External Links:

General
Complete name : Veep S03E02 1080p HDTV DD5.1 H.264-NorTV.ts
Format : MPEG-TS
File size : 1.58 GiB
Duration : 27mn 3s
Overall bit rate mode : Variable
Overall bit rate : 8 341 Kbps

Video
ID : 1076 (0x434)
Menu ID : 1 (0x1)
Format : AVC
Format/Info : Advanced Video Codec
Format profile : High@L4.0
Format settings, CABAC : Yes
Format settings, ReFrames : 4 frames
Codec ID : 27
Duration : 27mn 3s
Bit rate : 7 541 Kbps
Width : 1 920 pixels
Height : 1 080 pixels
Display aspect ratio : 16:9
Frame rate : 25.000 fps
Color space : YUV
Chroma subsampling : 4:2:0
Bit depth : 8 bits
Scan type : Interlaced
Scan order : Top Field First
Bits/(Pixel*Frame) : 0.145
Stream size : 1.42 GiB (90%)
Color primaries : BT.709
Transfer characteristics : BT.709
Matrix coefficients : BT.709

Audio
ID : 4270 (0x10AE)
Menu ID : 1 (0x1)
Format : AC-3
Format/Info : Audio Coding 3
Mode extension : CM (complete main)
Format settings, Endianness : Big
Codec ID : 6
Duration : 27mn 3s
Bit rate mode : Constant
Bit rate : 384 Kbps
Channel(s) : 6 channels
Channel positions : Front: L C R, Side: L R, LFE
Sampling rate : 48.0 KHz
Bit depth : 16 bits
Compression mode : Lossy
Stream size : 74.3 MiB (5%)
Language : Swedish

Text #1
ID : 6623 (0x19DF)
Menu ID : 1 (0x1)
Format : DVB Subtitle
Codec ID : 6
Duration : 26mn 42s
Delay relative to video : 17s 671ms
Language : Swedish

Text #2
ID : 6624 (0x19E0)
Menu ID : 1 (0x1)
Format : DVB Subtitle
Codec ID : 6
Duration : 26mn 42s
Delay relative to video : 17s 671ms
Language : Norwegian

Text #3
ID : 6646 (0x19F6)
Menu ID : 1 (0x1)
Format : DVB Subtitle
Codec ID : 6
Duration : 26mn 42s
Delay relative to video : 17s 671ms
Language : Danish

Text #4
ID : 6647 (0x19F7)
Menu ID : 1 (0x1)
Format : DVB Subtitle
Codec ID : 6
Duration : 26mn 42s
Delay relative to video : 17s 671ms
Language : Finnish

Sign up via clicking banner and a file link to creat a premium account.

ExtMatrix Download Links

Click Here for downloading links Veep S03E04 S03E05 1080p HDTV DD5.1 H.264 NorTV