Useful link:

MediaInfo:
General
Complete name : violet.and.daisy.2011.limited.720p.bluray.x264-veto.mkv
Format : Matroska
Format version : Version 2
File size : 4.37 GiB
Duration : 1h 28mn
Overall bit rate : 7 101 Kbps

Video
ID : 1
Format : AVC
Format/Info : Advanced Video Codec
Format profile : High@L4.1
Format settings, CABAC : Yes
Format settings, ReFrames : 5 frames
Codec ID : V_MPEG4/ISO/AVC
Duration : 1h 28mn
Bit rate : 5 590 Kbps
Width : 1 280 pixels
Height : 536 pixels
Display aspect ratio : 2.40:1
Frame rate mode : Constant
Frame rate : 24.000 fps
Color space : YUV
Chroma subsampling : 4:2:0
Bit depth : 8 bits
Scan type : Progressive
Bits/(Pixel*Frame) : 0.339
Stream size : 3.35 GiB (77%)
Writing library : x264 core 138 r2358 9e941d1
Encoding settings : cabac=1 / ref=5 / deblock=1:0:0 / analyse=0x3:0x133 / me=umh / subme=7 /

Audio
ID : 2
Format : DTS
Format/Info : Digital Theater Systems
Mode : 16
Format settings, Endianness : Big
Codec ID : A_DTS
Duration : 1h 28mn
Bit rate mode : Constant
Bit rate : 1 509 Kbps
Channel(s) : 6 channels
Channel positions : Front: L C R, Side: L R, LFE
Sampling rate : 48.0 KHz
Bit depth : 24 bits
Compression mode : Lossy
Stream size : 950 MiB (21%)
Language : English
Default : Yes
Forced : No

Menu
00:00:00.000 : en:00:00:00.000
00:05:16.291 : en:00:05:16.291
00:11:28.166 : en:00:11:28.166
00:16:19.291 : en:00:16:19.291
00:21:32.416 : en:00:21:32.416
00:27:18.000 : en:00:27:18.000
00:33:33.333 : en:00:33:33.333
00:39:08.583 : en:00:39:08.583
00:44:38.208 : en:00:44:38.208
00:49:13.666 : en:00:49:13.666
00:52:12.958 : en:00:52:12.958
00:56:40.541 : en:00:56:40.541
01:02:29.375 : en:01:02:29.375
01:05:32.541 : en:01:05:32.541
01:09:08.375 : en:01:09:08.375
01:13:13.541 : en:01:13:13.541
01:19:03.458 : en:01:19:03.458
01:22:55.583 : en:01:22:55.583
01:28:01.041 : en:01:28:01.041

Screenshot:

Sign up via clicking banner and a file link to creat a premium account.Then Get the access to protected links.

ExtMatrix Download Links

violet.and.daisy.2011.limited.720p.bluray.x264-veto.mkv