External Links:

General
Complete name : Web.Therapy.S02E08.720p.WEB DL.DD5.1.H.264.CasStudio.mkv
Format : Matroska
Format version : Version 4 / Version 2
File size : 795 MiB
Duration : 25mn 35s
Overall bit rate : 4 347 Kbps

Video
ID : 1
Format : AVC
Format/Info : Advanced Video Codec
Format profile : High@L3.1
Format settings, CABAC : No
Format settings, ReFrames : 2 frames
Codec ID : V_MPEG4/ISO/AVC
Duration : 25mn 35s
Bit rate : 3 876 Kbps
Width : 1 280 pixels
Height : 716 pixels
Display aspect ratio : 16:9
Frame rate mode : Constant
Frame rate : 23.976 fps
Color space : YUV
Chroma subsampling : 4:2:0
Bit depth : 8 bits
Scan type : Progressive
Bits/(Pixel*Frame) : 0.176
Stream size : 709 MiB (89%)
Default : Yes
Forced : No
Color primaries : BT.709
Transfer characteristics : BT.709
Matrix coefficients : BT.709

Audio
ID : 2
Format : AC-3
Format/Info : Audio Coding 3
Mode extension : CM (complete main)
Format settings, Endianness : Big
Codec ID : A_AC3
Duration : 25mn 35s
Bit rate mode : Constant
Bit rate : 384 Kbps
Channel(s) : 6 channels
Channel positions : Front: L C R, Side: L R, LFE
Sampling rate : 48.0 KHz
Bit depth : 16 bits
Compression mode : Lossy
Stream size : 70.3 MiB (9%)
Language : English
Default : Yes
Forced : No

File Name Size
Web.Therapy.S02E01.720p.WEB DL.DD5.1.H.264.CasStudio.mkv 885.58 MB
Web.Therapy.S02E02.720p.WEB DL.DD5.1.H.264.CasStudio.mkv 907.13 MB
Web.Therapy.S02E03.720p.WEB DL.DD5.1.H.264.CasStudio.mkv 788.11 MB
Web.Therapy.S02E04.720p.WEB DL.DD5.1.H.264.CasStudio.mkv 888.31 MB
Web.Therapy.S02E05.720p.WEB DL.DD5.1.H.264.CasStudio.mkv 834.00 MB
Web.Therapy.S02E06.720p.WEB DL.DD5.1.H.264.CasStudio.mkv 928.15 MB
Web.Therapy.S02E07.720p.WEB DL.DD5.1.H.264.CasStudio.mkv 824.68 MB
Web.Therapy.S02E08.720p.WEB DL.DD5.1.H.264.CasStudio.mkv 795.40 MB
Web.Therapy.S02E09.720p.WEB DL.DD5.1.H.264.CasStudio.mkv 875.55 MB
Web.Therapy.S02E10.720p.WEB DL.DD5.1.H.264.CasStudio.mkv 928.14 MB
Web.Therapy.S02E11.720p.WEB DL.DD5.1.H.264.CasStudio.mkv 831.71 MB
Web.Therapy.S02E12.720p.WEB DL.DD5.1.H.264.CasStudio.mkv 880.19 MB

Screenshot:

Sign up via clicking banner and a file link to creat a premium account.Then Get the access to protected links.

ExtMatrix Download Links

Web.Therapy.S02E01.720p.WEB DL.DD5.1.H.264.CasStudio.mkv

Click Here for downloading links Web Therapy S02 720p WEB-DL DD5.1 H.264 CasStudio