Useful link:

MediaInfo:
General
Complete name : We.re.the.Millers.2013.EXTENDED.720p.BluRay.x264-SPARKS.mkv
Format : Matroska
Format version : Version 4 / Version 2
File size : 5.46 GiB
Duration : 1h 58mn
Overall bit rate : 6 586 Kbps

Video
ID : 1
Format : AVC
Format/Info : Advanced Video Codec
Format profile : High@L4.1
Format settings, CABAC : Yes
Format settings, ReFrames : 5 frames
Codec ID : V_MPEG4/ISO/AVC
Duration : 1h 58mn
Bit rate : 5 076 Kbps
Width : 1 280 pixels
Height : 536 pixels
Display aspect ratio : 2.40:1
Frame rate mode : Constant
Frame rate : 23.976 fps
Color space : YUV
Chroma subsampling : 4:2:0
Bit depth : 8 bits
Scan type : Progressive
Bits/(Pixel*Frame) : 0.309
Stream size : 4.10 GiB (75%)
Title : X264
Writing library : x264 core 133 r2334 a3ac64b
Encoding settings : cabac=1 / ref=5 / deblock=1:0:0 / analyse=0x3:0x133 / me=umh / subme=7 /

Audio
ID : 2
Format : DTS
Format/Info : Digital Theater Systems
Mode : 16
Format settings, Endianness : Big
Codec ID : A_DTS
Duration : 1h 58mn
Bit rate mode : Constant
Bit rate : 1 509 Kbps
Channel(s) : 6 channels
Channel positions : Front: L C R, Side: L R, LFE
Sampling rate : 48.0 KHz
Bit depth : 24 bits
Compression mode : Lossy
Stream size : 1.25 GiB (23%)
Title : DTS
Language : English
Default : Yes
Forced : No

Menu
00:00:00.000 : en:00:00:00.000
00:09:20.059 : en:00:09:20.059
00:20:16.048 : en:00:20:16.048
00:30:49.639 : en:00:30:49.639
00:42:07.150 : en:00:42:07.150
00:52:05.998 : en:00:52:05.998
01:02:17.776 : en:01:02:17.776
01:13:22.982 : en:01:13:22.982
01:24:57.259 : en:01:24:57.259
01:36:17.063 : en:01:36:17.063
01:48:36.677 : en:01:48:36.677
01:51:39.276 : en:01:51:39.276

Screenshot:

Sign up via clicking banner and a file link to creat a premium account.Then Get the access to protected links.

ExtMatrix Download Links

We.re.the.Millers.2013.EXTENDED.720p.BluRay.x264-SPARKS.mkv